National Geographic Wild - Africa's Blood River [HDTV 720p (MKV)]

Category: Magazine | Comment: 0

Download Now

National Geographic Wild - Africa's Blood River [HDTV 720p (MKV)]

National Geographic Wild - Africa's Blood River [HDTV 720p (MKV)]
English | Size: 1.49 GB (1,594,899,543 bytes)
Category: Documentaries
In the most brutal migration on the planet, ride shotgun with ZuluEcho545 and FoxtrotOne, a zebra mother and her son. They run the gauntlet through crocodile infested rivers and lion offensives, culminating in the world's ultimate ambush: the Mara River - where the biggest crocodiles in Africa are on the attack.


MediaInfo :

General
Unique ID
: 0 (0x0)
Format
: Matroska
Format version : Version 4 / Version 2
File size
: 1.49 GiB
Duration
: 43mn 58s
Overall bit rate : 4 837 Kbps
Encoded date : UTC 2010-02-22 21:41:29
Writing application

: no_variable_data
Writing library : no_variable_data

Video
ID : 1
Format
: AVC
Format/Info
: Advanced Video Codec
Format profile :
Format settings, CABAC : Yes
Format settings, Reframes : 5 frames
Codec ID
: V_MPEG4/ISO/AVC
Duration
: 43mn 58s
Bit rate
: 4 356 Kbps
Width
: 1 280 pixels
Height
: 720 pixels
Display aspect ratio : 16:9
frame rate mode : Constant
frame rate
: 25.000 fps
Color space
: YUV
Chroma subsampling

: 4:2:0
Bit depth
: 8 bits
Scan type
: Progressive
Bits/(Pixel*frame)

: 0.189
Stream size
: 1.34 GiB (90%)
Writing library : x264 core 138 r2358 9e941d1
Encoding settings: cabac=1 / ref=5 / deblock=1:0:0 / analyse=0x3:0x113 / me=umh / subme=8 / psy=1 / psy_rd=1.00:0.00 / mixed_ref=1 / me_range=16 / chroma_me=1 / trellis=1 / 8x8dct=1 / cqm=0 / deadzone=21,11 / fast_pskip=1 / chroma_qp_offset=-2 / threads=12 / lookahead_threads=2 / sliced_threads=0 / nr=0 / decimate=1 / interlaced=0 / bluray_compat=0 / constrained_intra=0 / bframes=3 / b_pyramid=2 / b_adapt=2 / b_bias=0 / direct=3 / weightb=1 / open_gop=0 / weightp=2 / keyint=250 / keyint_min=25 / scenecut=40 / intra_refresh=0 / rc_lookahead=50 / rc=crf / mbtree=1 / crf=21.0 / qcomp=0.60 / qpmin=0 / qpmax=69 / qpstep=4 / ip_ratio=1.40 / aq=1:1.00
Default
: Yes
Forced
: No
Matrix coefficients

: BT.709

Audio
ID : 2
Format
: AC-3
Format/Info
: Audio Coding 3
Mode extension : CM (complete main)
Format settings, Endianness : Big
Codec ID
: A_AC3
Duration
: 43mn 58s
Bit rate mode : Constant
Bit rate
: 384 Kbps
Channel(s)
: 6 channels
Channel positions: Front: L C R, Side: L R, LFE
Sampling rate : 48.0 KHz
Bit depth
: 16 bits
Compression mode : Lossy
Stream size
: 121 MiB (8%)
Title
: English
Language
: English
Default
: Yes
Forced
: No

DOWNLOAD
(Buy premium account for maximum speed and resuming ability)

Direct Download


Tags: National, Geographic, Africa

National Geographic Wild - Africa's Blood River [HDTV 720p (MKV)] Fast Download via Rapidshare Hotfile Fileserve Filesonic Megaupload, National Geographic Wild - Africa's Blood River [HDTV 720p (MKV)] Torrents and Emule Download or anything related.
Dear visitor, you went to website as unregistered user.
We encourage you to Register or Login to website under your name.
Information
Members of Guest cannot leave comments.