AurangZaib (2013) - 480p - PDVD - RiP - X264 - AC3 - 500MB - Exclusive Release

Category: Movie | Comment: 0

Download Now

AurangZaib (2013) - 480p - PDVD - RiP - X264 - AC3 - 500MB - Exclusive Release

AurangZaib (2013) - 480p - PDVD - RiP - X264 - AC3 - 500MB - Exclusive Release

AurangZaib (2013) - 480p - PDVD - RiP - X264 - AC3 - 500MB - Exclusive Release
IMBD: http://www.imdb.com/title/tt2804026/

Story: A cop goes undercover into a gangster's family as his son. This sets in place a chain reaction of complications and increasingly uncontrollable events.

Director: Atul Sabharwal
Writer: Atul Sabharwal (script)
Stars: Arjun Kapoor, Prithviraj Sukumaran, Rishi Kapoor
[b]SOURCE: PDVDr - NTSC - Team ICFG (Special ThankS)


Format : Matroska
Format version : Version 4 / Version 2
File size : 521 MiB
Duration : 2h 0mn
Overall bit rate : 603 Kbps
Movie name : -=Mr.Khan=-
Encoded date : UTC 2013-05-20 15:51:06
Writing application : mkvmerge v6.2.0 ('Promised Land') built on Apr 28 2013 12:22:01
Writing library : libebml v1.3.0 + libmatroska v1.4.0

Video
ID : 1
Format : AVC
Format/Info : Advanced Video Codec
Format profile : [email protected]
Format settings, CABAC : Yes
Format settings, ReFrames : 4 frames
Codec ID : V_MPEG4/ISO/AVC
Duration : 2h 0mn
Bit rate : 538 Kbps
Width : 720 pixels
Height : 304 pixels
Display aspect ratio : 1.941
Original display aspect ratio : 1.939
Frame rate mode : Constant
Frame rate : 29.970 fps
Color space : YUV
Chroma subsampling : 4:2:0
Bit depth : 8 bits
Scan type : Progressive
Bits/(Pixel*Frame) : 0.082
Stream size : 455 MiB (87%)
Title : -=Mr.Khan=-
Writing library : x264 core 132 r2273
Language : Hindi
Default : Yes
Forced : No

Audio
ID : 2
Format : AC-3
Format/Info : Audio Coding 3
Mode extension : CM (complete main)
Format settings, Endianness : Big
Codec ID : A_AC3
Duration : 2h 0mn
Bit rate mode : Constant
Bit rate : 64.0 Kbps
Channel(s) : 2 channels
Channel positions : Front: L R
Sampling rate : 48.0 KHz
Bit depth : 16 bits
Compression mode : Lossy
Stream size : 55.3 MiB (11%)
Title : -=Mr.Khan=-
Language : Hindi
Default : Yes
Forced : No[/b]

AurangZaib (2013) - 480p - PDVD - RiP - X264 - AC3 - 500MB - Exclusive Release
AurangZaib (2013) - 480p - PDVD - RiP - X264 - AC3 - 500MB - Exclusive Release

AurangZaib (2013) - 480p - PDVD - RiP - X264 - AC3 - 500MB - Exclusive Release

AurangZaib (2013) - 480p - PDVD - RiP - X264 - AC3 - 500MB - Exclusive Release
http://sanshare.com/jiv1098rhqmm/AurangZaib_2013_480p_X264_AC3_500MB.mkv.html

AurangZaib (2013) - 480p - PDVD - RiP - X264 - AC3 - 500MB - Exclusive Release
http://ultramegabit.com/file/details/1I5eNT2AP7o

AurangZaib (2013) - 480p - PDVD - RiP - X264 - AC3 - 500MB - Exclusive Release
http://speedshare.eu/84bo8dzld7bw.html

AurangZaib (2013) - 480p - PDVD - RiP - X264 - AC3 - 500MB - Exclusive Release
http://filezy.net/udp9j3d8g31f/AurangZaib_2013_480p_PDVD_RiP_X264_AC3_500MB.mkv.html
Direct Download


Tags: AurangZaib, Exclusive, Release

AurangZaib (2013) - 480p - PDVD - RiP - X264 - AC3 - 500MB - Exclusive Release Fast Download via Rapidshare Hotfile Fileserve Filesonic Megaupload, AurangZaib (2013) - 480p - PDVD - RiP - X264 - AC3 - 500MB - Exclusive Release Torrents and Emule Download or anything related.
Dear visitor, you went to website as unregistered user.
We encourage you to Register or Login to website under your name.
Information
Members of Guest cannot leave comments.