Paul McCartney and Wings Rockshow 2013 BRRip 720p AC3 x264 Tempora :january/16/2014

Category: Movie | Comment: 0

Download Now

Paul McCartney and Wings Rockshow 2013 BRRip 720p AC3 x264 Temporal.
Paul McCartney and Wings Rockshow 2013 BRRip 720p AC3 x264 Tempora :january/16/2014
Paul McCartney and Wings Rockshow 2013 BRRip 720p AC3 x264 Temporal | 1.61 GB
File: Paul McCartney and Wings Rockshow 2013 BRRip 720p AC3 x264 Temporal Preview.mkv
Size: 13217712 bytes (12.61 MiB), duration: 00:01:00, avg.bitrate: 1762 kb/s
Audio: ac3, 48000 Hz, 5:1 (eng)
Video: h264, yuv420p, 1280x690, 23.98 fps(r) (eng)
File: Paul McCartney and Wings Rockshow 2013 BRRip 720p AC3 x264 Temporal.mkv
Size: 1710094926 bytes (1.59 GiB), duration: 02:09:28, avg.bitrate: 1761 kb/s
Audio: ac3, 48000 Hz, 5:1 (eng)
Video: h264, yuv420p, 1280x690, 23.98 fps(r) (eng)
http://www.imdb.com/title/tt0079814/
Paul McCartney and Wings Rockshow 2013 BRRip 720p AC3 x264 Temporal
[center]Title:Rockshow
Year:1980
Rating:7.0
Genre:Documentary / Music
Director:Paul McCartney
Cast:Paul McCartney / Linda McCartney / Denny Laine / Jimmy McCulloch / Joe English / Tony Dorsey / Howie Casey / Steve Howard Jr. / Thaddeus Richard
Paul McCartney and Wings Rockshow 2013 BRRip 720p AC3 x264 Tempora :january/16/2014
NFo
________ ______
___ __/___________ ______________________________ ___ /
__ / _ _ _ __ `__ __ __ __ _ ___/ __ `/_ /
_ / / __/ / / / / /_ /_/ / /_/ / / / /_/ /_ /
/_/ ___//_/ /_/ /_/_ .___/____//_/ __,_/ /_/
/_/
Paul McCartney and Wings Rockshow 2013 BRRip 720p AC3 x264 Temporal
______ ___ _____________ ________ ________
___ |/ /__________ /__(_)_____ _ ____ _/_________ __/_____
__ /|_/ /_ _ __ /__ /_ __ `/ __ / __ __ _ /_ _ __
_ / / / / __/ /_/ / _ / / /_/ / __/ / _ / / / __/ / /_/ /
/_/ /_/ ___/__,_/ /_/ __,_/ /___/ /_/ /_//_/ ____/
Format : Matroska
Format version : Version 2
File size : 1.59 GiB
Duration : 2h 9mn
Overall bit rate : 1 761 Kbps
Writing application : HandBrake 0.9.9
Writing library : libmkv 0.6.5
Video
ID : 1
Format : AVC
Format/Info : Advanced Video Codec
Format settings, CABAC : Yes
Format settings, ReFrames : 6 frames
Codec ID : V_MPEG4/ISO/AVC
Duration : 2h 9mn
Bit rate : 1 500 Kbps
Width : 1 280 pixels
Height : 690 pixels
Display aspect ratio : 1.85:1
Frame rate mode : Constant
Frame rate : 23.976 fps
Color space : YUV
Chroma subsampling : 4:2:0
Bit depth : 8 bits
Scan type : Progressive
Bits/(Pixel*Frame) : 0.071
Stream size : 1.33 GiB (83%)
Writing library : x264 core 130 r2273 b3065e6
Language : English
Default : Yes
Forced : No
Color primaries : BT.709
Transfer characteristics : BT.709
Matrix coefficients : BT.709
Audio
ID : 2
Format : AC-3
Format/Info : Audio Coding 3
Mode extension : CM (complete main)
Format settings, Endianness : Big
Codec ID : A_AC3
Duration : 2h 9mn
Bit rate mode : Constant
Bit rate : 256 Kbps
Channel(s) : 6 channels
Channel positions : Front: L C R, Side: L R, LFE
Sampling rate : 48.0 KHz
Bit depth : 16 bits
Compression mode : Lossy
Stream size : 237 MiB (15%)
Language : English
Default : Yes
Forced : No
________ _____ __________
___ __ ___________________________(_)_________ /___(_)____________
__ / / / _ _ ___/ ___/_ ___/_ /___ __ __/_ /_ __ _ __
_ /_/ // __/(__ )/ /__ _ / _ / __ /_/ / /_ _ / / /_/ / / / /
/_____/ ___//____/ ___/ /_/ /_/ _ .___/__/ /_/ ____//_/ /_/
/_/
125mins - Documentary | Music - Restored 2013
In June 2013, a new restored version of the film was released. The longer 125-minute version was digitally restored from the 35mm negative with the soundtrack remixed in 5.1 surround sound. The film had a limited worldwide cinema re-release on May 16, 2013, with an exclusive introduction and interview with McCartney. An exclusive VIP premiere screening, with McCartney in attendance and introducing the film, took place at BAFTA on May 15, 2013. This restored cut was released on DVD and Blu-ray in June 2013.
http://www.imdb.com/title/tt0079814/
_____ __ _____
___ | / /_______ /_____________
__ |/ /_ __ __/ _ _ ___/
_ /| / / /_/ / /_ / __/(__ )
/_/ |_/ ____/__/ ___//____/
Source(s) Encoder: MediaClub! - Thank You!
Respect to all the hard working Groups out there that make this a possibility!
Your work is always valued !!*=-
Buy a premium rapidgator.net to download file with fast speed
Written answers for you or me
thanks
Paul McCartney and Wings Rockshow 2013 BRRip 720p AC3 x264 Tempora :january/16/2014

http://rapidgator.net/file/35328d5840ea43926e71043e430beef9/zmlzu.Paul.McCartney.and.Wings.Rockshow.2013.BRRip.720p.AC3.x264.Temporal.part1.rar.html
http://rapidgator.net/file/e04f819fab11b0aceaa6d88b465f911c/zmlzu.Paul.McCartney.and.Wings.Rockshow.2013.BRRip.720p.AC3.x264.Temporal.part2.rar.html

Direct Download


Tags: McCartney, Rockshow, Tempora

Paul McCartney and Wings Rockshow 2013 BRRip 720p AC3 x264 Tempora :january/16/2014 Fast Download via Rapidshare Hotfile Fileserve Filesonic Megaupload, Paul McCartney and Wings Rockshow 2013 BRRip 720p AC3 x264 Tempora :january/16/2014 Torrents and Emule Download or anything related.
Dear visitor, you went to website as unregistered user.
We encourage you to Register or Login to website under your name.
Information
Members of Guest cannot leave comments.