BSkyB - Discovering Fleetwood Mac (2014)

Category: Movie | Comment: 0

Download Now

http://i58.fastpic.ru/big/2014/0313/b2/a2062ab3e78a5810c5d392294bd301b2.jpg
BSkyB - Discovering: Fleetwood Mac (2014)
PDTV | 832x468 | MP4/x264 @ 2019 Kbps | 21mn | Audio: English AAC 160 kbps, 2 channels | Subs: None | 341 MB
Genre: Documentary

Music journalists Camilla Pia, Will Hodgkinson and John Aizlewood are among those reflecting on the tumultuous history of Fleetwood Mac, from their early days led by founder Peter Green to the departure of Lindsey Buckingham ahead of a world tour in 1987. As well as discussing the band's deeply strained and intertwined personal lives, they examine how 1977 album Rumours exposed the turmoil that existed in the group at the time, and look at the experimental nature of 1970 release Tusk.


Video
ID : 1
Format : AVC
Format/Info : Advanced Video Codec
Format profile : [email protected]/* */
Format settings, CABAC : No
Format settings, ReFrames : 1 frame
Codec ID : avc1
Codec ID/Info : Advanced Video Coding
Duration : 21mn 48s
Bit rate mode : Variable
Bit rate : 2 019 Kbps
Width : 832 pixels
Height : 468 pixels
Display aspect ratio : 16:9
Frame rate mode : Constant
Frame rate : 25.000 fps
Color space : YUV
Chroma subsampling : 4:2:0
Bit depth : 8 bits
Scan type : Progressive
Bits/(Pixel*Frame) : 0.207
Stream size : 315 MiB (92%)
Encoded date : UTC 2014-03-09 16:04:13
Tagged date : UTC 2014-03-09 16:04:13

Audio
ID : 2
Format : AAC
Format/Info : Advanced Audio Codec
Format version : Version 4
Format profile : LC
Codec ID : 40
Duration : 21mn 48s
Bit rate mode : Variable
Bit rate : 160 Kbps
Channel(s) : 2 channels
Channel positions : Front: L R
Sampling rate : 48.0 KHz
Compression mode : Lossy
Stream size : 25.0 MiB (7%)
Encoded date : UTC 2014-03-09 16:04:13
Tagged date : UTC 2014-03-09 16:04:13


http://i59.fastpic.ru/big/2014/0313/9d/35f309f04086b3a4278939966befb39d.jpg
http://i58.fastpic.ru/big/2014/0313/2d/10ac25a125f0aa865552fb59bbae752d.jpg


Link Download


Buy Premium Account To Support Me & Get Maximum Speed & Save Time!!
Direct Download


Tags: Discovering, Fleetwood

BSkyB - Discovering Fleetwood Mac (2014) Fast Download via Rapidshare Hotfile Fileserve Filesonic Megaupload, BSkyB - Discovering Fleetwood Mac (2014) Torrents and Emule Download or anything related.
Dear visitor, you went to website as unregistered user.
We encourage you to Register or Login to website under your name.
Information
Members of Guest cannot leave comments.