The Nut Job 2014 TS MP3 XviD - RARBG

Category: Movie | Comment: 0

Download Now


The Nut Job 2014 TS MP3 XviD - RARBG
The Nut Job 2014 TS MP3 XviD - RARBG

The Nut Job 2014 TS MP3 XviD - RARBG

http://imdb.com/title/tt1821658/


Info:
Format : AVI
Format/Info : Audio Video Interleave
Format profile : OpenDML
File size : 1.13 GiB
Duration : 1h 17mn

Video
ID : 0
Format : MPEG-4 Visual
Format profile : Advanced [email protected]
Format settings, BVOP : 1
Format settings, QPel : No
Format settings, GMC : No warppoints
Format settings, Matrix : Default (H.263)
Codec ID : XVID
Codec ID/Hint : XviD
Duration : 1h 17mn
Bit rate : 1 800 Kbps
Width : 720 pixels
Height : 384 pixels
Display aspect ratio : 1.85:1
Frame rate : 29.970 fps
Color space : YUV
Chroma subsampling : 4:2:0
Bit depth : 8 bits
Scan type : Progressive
Compression mode : Lossy
Bits/(Pixel*Frame) : 0.217
Stream size : 1 003 MiB (87%)
Writing library : Lavc55.52.102

Audio
ID : 1
Format : MPEG Audio
Format version : Version 1
Format profile : Layer 3
Mode : Joint stereo
Codec ID : 55
Codec ID/Hint : MP3
Duration : 1h 17mn
Bit rate mode : Constant
Bit rate : 256 Kbps
Channel(s) : 2 channels
Sampling rate : 44.1 KHz
Compression mode : Lossy
Stream size : 143 MiB (12%)
Alignment : Aligned on interleaves
Interleave, duration : 26 ms (0.78 video frame)
Writing library : LAME3.99.5

The Nut Job 2014 TS MP3 XviD - RARBG

The Nut Job 2014 TS MP3 XviD - RARBG



Direct Download

The Nut Job 2014 TS MP3 XviD - RARBG Fast Download via Rapidshare Hotfile Fileserve Filesonic Megaupload, The Nut Job 2014 TS MP3 XviD - RARBG Torrents and Emule Download or anything related.
Dear visitor, you went to website as unregistered user.
We encourage you to Register or Login to website under your name.
Information
Members of Guest cannot leave comments.