Robocop 2014 HD-TS AC3 XviD HQ Hive-CM8

Category: Movie | Comment: 0

Download Now

Robocop 2014 HD-TS AC3 XviD HQ Hive-CM8
Robocop 2014 HD-TS AC3 XviD HQ Hive-CM8
| 1.55 GB
File: Robocop.2014.HD-TS.XVID.AC3.HQ.Hive-CM8.avi
Size: 1598177280 bytes (1.49 GiB), duration: 01:48:18, avg.bitrate: 1968 kb/s
Audio: ac3, 48000 Hz, stereo, 256 kb/s
Video: mpeg4, yuv420p, 720x272, 29.97 fps(r)

iMDB iNFO

In RoboCop, the year is 2028 and multinational conglomerate OmniCorp is at the center of robot technology. Overseas, their drones have been used by the military for years - and it's meant billions for OmniCorp's bottom line. Now OmniCorp wants to bring their controversial technology to the home front, and they see a golden opportunity to do it. When Alex Murphy (Joel Kinnaman) - a loving husband, father and good cop doing his best to stem the tide of crime and corruption in Detroit - is critically injured in the line of duty, OmniCorp sees their chance for a part-man, part-robot police officer. OmniCorp envisions a RoboCop in every city and even more billions for their shareholders, but they never counted on one thing: there is still a man inside the machine pursuing justice.
Title:RoboCop
Year:2014
Rating:6.6
Genre:Action / Crime / Thriller
Director:José Padilha
Cast:Joel Kinnaman / Gary Oldman / Michael Keaton / Abbie Cornish / Jackie Earle Haley / Michael K. Williams / Jennifer Ehle / Jay Baruchel / Marianne Jean-Baptiste / Samuel L. Jackson / Aimee Garcia / Douglas Urbanski / John Paul Ruttan / Patrick Garrow / K.C. Collins
Robocop 2014 HD-TS AC3 XviD HQ Hive-CM8
NFo Notes

[center]Robocop 2014 HD-TS AC3 XviD HQ Hive-CM8
Robocop.2014.HD-TS.XVID.AC3.HQ.Hive-CM8
Thx Hive
CM8 Doing It Right The First Time
Sources:
Video: Original Chinese 720p HDCAM thx
Audio: Millenium/Echo Line (very good line)
thx
was a lot of work - took me some days, but with both great sources it was definately worth it!
Quality can be expected as seen on my ironman 3 version
so far we have only seen smy video source versions all in 720x30* something.
but i got lucky and got the original 720p cam which had great quality just needed some lovin.
yes it still had chinese subs as seen in chinese cinema.
only good thing is the lower subline is at the bottom of the video and can be cropped away easily without loosing too much video.
the higher subline is hardly visible, perhaps 10 times during the movie.
Personally i like the lower subline cropped but since there is no right way to do a subbed movie,
i decided to do 2 versions which will get out same time for you to choose from
Version 1: all subs left intact
Version 2: lower line cropped, hardly any subs left (only translated onscreen text)
Encode:
added brightness,contrast,sharpness,saturation, fixed rgb and white balance on both versions
for the cropped version i had to do additional work, there is a 3min scene with foreign language near the beginning
which had english translation below the chinese subline, due to cropping this translation would have been gone.
so i wrote a subfile with the english text and hardcoded it into the cropped version too, so can you still all read whats been said
For the Audio it was already nice line, still cleaned it through and resynced it to my video, 24 cuts and all should be lipsync now.
hope you enjoy my weeks worth work, this will do me till retail or r5 arrives
Bonus:
for the quality hunters a 720p version will be coming soonish too :=)) - no not an upscale
got very nice
enjoy
Video: 720x272 @bitrate 1700 2pass
Audio: English AC3 2.0 Stereo Line
http://www.imdb.com/title/tt1234721/
General
Complete name : Robocop.2014.HD-TS.XVID.AC3.HQ.Hive-CM8.avi
Format : AVI
Format/Info : Audio Video Interleave
File size : 1.49 GiB
Duration : 1h 48mn
Overall bit rate : 1 967 Kbps
Writing application : Nandub v1.0rc2
Writing library : Nandub build 1853/release
Video
ID : 0
Format : MPEG-4 Visual
Format profile : Advanced [email protected]
Format settings, BVOP : 2
Format settings, QPel : Yes
Format settings, GMC : No warppoints
Format settings, Matrix : Default (H.263)
Muxing mode : Packed bitstream
Codec ID : XVID
Codec ID/Hint : XviD
Duration : 1h 48mn
Bit rate : 1 700 Kbps
Width : 720 pixels
Height : 272 pixels
Display aspect ratio : 2.647
Frame rate : 29.970 fps
Color space : YUV
Chroma subsampling : 4:2:0
Bit depth : 8 bits
Scan type : Progressive
Compression mode : Lossy
Bits/(Pixel*Frame) : 0.290
Stream size : 1.29 GiB (86%)
Writing library : XviD 1.2.1 (UTC 2008-12-04)
Audio
ID : 1
Format : AC-3
Format/Info : Audio Coding 3
Mode extension : CM (complete main)
Format settings, Endianness : Big
Codec ID : 2000
Duration : 1h 48mn
Bit rate mode : Constant
Bit rate : 256 Kbps
Channel(s) : 2 channels
Channel positions : Front: L R
Sampling rate : 48.0 KHz
Bit depth : 16 bits
Compression mode : Lossy
Stream size : 198 MiB (13%)
Alignment : Split accross interleaves
Interleave, duration : 33 ms (1.00 video frame)
Interleave, preload duration : 500 ms
Description:
In 2028 Detroit, when Alex Murphy - a loving husband, father and good cop - is critically injured in the line of duty, the multinational conglomerate OmniCorp sees their chance for a part-man, part-robot police officer.
Cast:
Joel Kinnaman ... Alex Murphy / RoboCop
Gary Oldman ... Dr. Dennett Norton
Michael Keaton ... Raymond Sellars
Abbie Cornish ... Clara Murphy
Jackie Earle Haley ... Rick Mattox
[center]Robocop 2014 HD-TS AC3 XviD HQ Hive-CM8
Robocop 2014 HD-TS AC3 XviD HQ Hive-CM8
Robocop 2014 HD-TS AC3 XviD HQ Hive-CM8
Robocop 2014 HD-TS AC3 XviD HQ Hive-CM8
[video=http://www.youtube.com/watch?v=INmtQXUXez8]
Greetz
LTFS,ViSiON,SPK,SceneLovers,PRESTiGE,SANTi,3LT0N,YanKeeS,COPYxRIGHT,THC,T0XiC
D2U,LKRG,Kingstoner,MiLLENiUM,Feel-Free,KoDeKinG,FLAWL3SS,WBZ,BHRG,26K,NOVA,MAGNET
Unevano,BigVik,Rapeseed,SAFC,goldadvance,KaN1vE,Pinnz,Wayne,HiGH
SeeN,jtr,Limey,ICONiK,4PlayHD,THEDEN-RG,eXceSs,AKS74u,TED
Mr Hive,rkofan,and most P2P groups
Great Work Guys :D
LOOKING FOR ANYTHING YOU WANT TO LOOK AND SOUND BETTER
WHERE IS OUR SITE OF DRUNKARDS? JUST ASK
/* */
[center]
Buy Premium Account and Download it at High Speed Before They Get Deleted

If you like My contribution Then Please support me by getting an premium account



RapidGator:
Recommend: Buy Premium Download Max Speed!!
http://rapidgator.net/file/e157873f6c46357dbbc48c6160574f06/ns5lh.Robocop.2014.HDTS.AC3.XviD.HQ.HiveCM8.rar.html

Uploaded:
For US-UK, France, Spain, Australia, Belgium, Canada, Germany,..
http://uploaded.net/file/u4dpgo6f/ns5lh.Robocop.2014.HDTS.AC3.XviD.HQ.HiveCM8.rar

OBoom:
For Switzerland, Austria, Netherlands, Germany, US-UK,..
https://www.oboom.com/BN26Z9GT/ns5lh.Robocop.2014.HDTS.AC3.XviD.HQ.HiveCM8.rar

Uploadable:
For Germany, United Kingdom, United States, Italy,..
http://www.uploadable.ch/file/9PNvNEkZCEKa/ns5lh.Robocop.2014.HDTS.AC3.XviD.HQ.HiveCM8.rar

Direct Download


Tags: Robocop

Robocop 2014 HD-TS AC3 XviD HQ Hive-CM8 Fast Download via Rapidshare Hotfile Fileserve Filesonic Megaupload, Robocop 2014 HD-TS AC3 XviD HQ Hive-CM8 Torrents and Emule Download or anything related.
Dear visitor, you went to website as unregistered user.
We encourage you to Register or Login to website under your name.
Information
Members of Guest cannot leave comments.