The Devils Chair 2007 DVDRip AC3 XviD LKRG

Category: Movie | Comment: 0

Download Now

The Devils Chair 2007 DVDRip AC3 XviD LKRG
The Devils Chair 2007 DVDRip AC3 XviD LKRG
| 872.45 MB
File: TheDC_LKRG.avi
Size: 914817024 bytes (872.44 MiB), duration: 01:30:41, avg.bitrate: 1345 kb/s
Audio: ac3, 48000 Hz, 5:1, 448 kb/s
Video: mpeg4, yuv420p, 720x464, 23.98 fps(r)

iMDB iNFO

With a pocketful of drugs, Nick West takes out his girlfriend Sammy, for a good time. When they explore an abandoned asylum, the discovery of a bizarre device, a cross between an electric chair and sadistic fetish machine, transforms drugged-out bliss into agony and despair. After Sammy is brutally assaulted and murdered by unseen forces, Nick becomes the number-one suspect. Years pass and Nick, who had been locked up in a mental hospital, is released into the care of eminent psychiatrist Dr. Willard, who is hell-bent on exposing the truth behind the killing. Accompanied by Dr. Willard and several of his students, Nick returns to the scene of the crime. However, the decrepit asylum hides a blood-drenched secret.
Title:The Devil's Chair
Year:2007
Rating:4.9
Genre:Horror
Director:Adam Mason
Cast:Andrew Howard / Pollyanna Rose / Olivia Hill / Nadja Brand / Eric M. Breiman / Gary Mackay / David Gant / Louise Griffiths / Elize du Toit / Matt Berry
The Devils Chair 2007 DVDRip AC3 XviD LKRG

NFo Notes

:@@@:
+@++@#: ##
@ + @ @
@ + : '
` @ ,@@` '
: , @;@@@
: # @@.@@@' : #.
+ @ @@@.`@@@ @ #@@
+ + .@@@@. @@@@ @@@
:@@@@# @@@. .@@.
+ @@@: #,++ , : #@@
@ .++@@@:@ + .` ,@ .@` ;@ @` @+ @@@
#@@@@@@@;# @ : .@@@# '@@@' .@@@' @@@ @@@# @ @@@
@@@@@@@@@; @ ` @@ .@@@ .#@@ @@@@ @@ :@@# #'@@'@ @@@@ #. @@@
+@@@+;:@@@: . : @@ @@ @@@ @@@ @@ @@ @@+ @@` +@@ @@@
@@ ':.@@@: '# @@ , @@@ @@@ @@ ; @@: @@ @@ @@@
@ @@@@@@:.# # @@ + @@@ @@@ @@ : @@: @@ @@ @@+
@ @@@@@@@. @@ @@@ @@@ @@ @@: @@ @@ @@+
@ @. @@@. : @@ + @@@ @@@ @@ @ @@: @@ @@ @@@
`` @@@. :`# @@ + @@@ @@@ @@ ; @@: @@ @@ @@@
`@,#` @#@' @@`; @@ : @@@ @@@ @@ . @@: @@ @@ @@@
.@ ,@ , @@ +@, @@@ @@@ @@ ;@` @@: @@ @@ @@@
#@@@, ' @ @@ `; @@@ @@@ @@ .: @@: @@ @@ @@@
`@@@@@@@@@@@@+: @@ ` @@@ @@@ @@ @@; @@` @@ @@@
+@@@@@@@@@@@@` @ @@@ . @@@: @@@ @@@ ` `@@@ @@@+'+@@@` @@
+@` +@@@# ' @@@@#@ #@@@@@@@` @@@@## @@# +@@@ ,@@@@;
@ #. @@@; `@@@ @@ .@@@ .@@# # #@ ;@
, `@@ ,
.@
:@@. @
@''@@: @+
` @@,+
@. @@
+
+@@@@@@,
@@. .@@
.# ` @ . .
`' @ @ @@. .#@
@ '@@ @';@@@` ' @ @
`` ,#:@@@@: #@@ @ @ : .# #`
+ @ ,@@@ @@; + +@ @ ' @ . @
@ @@@ '@@@ @ +@@@@ '+ @ @.:@
+ @@@ @@@@@#@ #@+ @,@ `@@@
` @@@ @+ . @@@ @@+
@ `@;@@@# ` +@@ @@: .
.+'` @@@ @ ;@` @` +@@ @@: .@ @@ .@
@` @@@ # @@@+ @@@` +@@ @@: `#@@@ @@@@.@@@@
: @@@@@, @`@@@ @;@@@ +@@ @@: @@.`@@@ . @@@.@@@
@@@'@ @@@ . @@. +@@ @@: @@. @@ @@@ @
`@@@@@@'@ @@@,` @@. +@@ @@: @@. ` @@@ .,
,@@@@@@@ @ @@+# @@. +@@ @@: @@. # @@@ '
@@@@@@@@ @ `'+. @@. +@@ @@: @@. @@@ @,
+@` @@@ @@@, @@. +@@ @@: @@.; @@@
@, @@@;@ @@@ @@. +@@ @@: @@.@ @@@
,` @@@ + @@# @@. +@@ @@: @@.+ @@@
# .. @@. # @@@ @@ +@@ @@: @@.@@' @@@
+@ :, @@@ @@ +@@ @@: @@.`' @@@
@@@@@@ @ @@@ @@ +@@ @@+ @@. ` @@@
@@@@@@@@`,@@@ . @@, @@@ @@@ @@@ : .@@@@
@@@@@@@# @@@@@@. @@@# @@@` ,@@@ @@@@@@ .@@@`
@; +@ @@@# ,@@ @ `@ `@@@ ,@.
. ` , .
The Devils Chair
Runtime ..........: 1h 30mn
File Size ........: 872 MiB
Resolution .......: 720 x 464
IMDb URL .........: http://www.imdb.com/title/tt0837791/?ref_=nv_sr_1
Genre ............: Horror
Language .........: English
Subtitles ........: None
Complete name : The Devils Chair 2007 DVDRip AC3 XviD LKRG\TheDC_LKRG.avi
Format : AVI
Format/Info : Audio Video Interleave
File size : 872 MiB
Duration : 1h 30mn
Overall bit rate : 1 345 Kbps
Writing application : VirtualDubMod 1.5.10.2 (build 2540/release)
Writing library : VirtualDubMod build 2540/release
Video
ID : 0
Format : MPEG-4 Visual
Format profile : Advanced [email protected]
Format settings, BVOP : 2
Format settings, QPel : No
Format settings, GMC : No warppoints
Format settings, Matrix : Default (H.263)
Muxing mode : Packed bitstream
Codec ID : XVID
Codec ID/Hint : XviD
Duration : 1h 30mn
Bit rate : 887 Kbps
Width : 720 pixels
Height : 464 pixels
Display aspect ratio : 1.881
Frame rate : 23.976 fps
Color space : YUV
Chroma subsampling : 4:2:0
Bit depth : 8 bits
Scan type : Progressive
Compression mode : Lossy
Bits/(Pixel*Frame) : 0.111
Stream size : 576 MiB (66%)
Writing library : XviD 1.2.1 (UTC 2008-12-04)
Audio
ID : 1
Format : AC-3
Format/Info : Audio Coding 3
Mode extension : CM (complete main)
Format settings, Endianness : Big
Codec ID : 2000
Duration : 1h 30mn
Bit rate mode : Constant
Bit rate : 448 Kbps
Channel(s) : 6 channels
Channel positions : Front: L C R, Side: L R, LFE
Sampling rate : 48.0 KHz
Bit depth : 16 bits
Compression mode : Lossy
Stream size : 291 MiB (33%)
Alignment : Split accross interleaves
Interleave, duration : 42 ms (1.00 video frame)
Interleave, preload duration : 500 ms
Enjoy From LKRG
Sharing is Caring
With a pocketful of drugs, Nick West takes out his girlfriend Sammy,
for a good time. When they explore an abandoned asylum, the discovery
of a bizarre device, a cross between an electric ...
Greets/Thanks
ETRG,CRYS,LKRG,INFERNO,3Li,Unevano,BION,Feel-Free,Hive-CM8,
FraMeSToR,PrisM,Noir,Kingdom,TWiZTED,SecretMyth,Toxic,Sic,FXG,EMBER,
ViP3R,DiVERSiTY,FLAWL3SS,jtr,THC,420DEMONS,TiCTaC,Kempas
And to all the other p2p groups past and present
Let the Legend Killing Live On

Buy Premium Account and Download it at High Speed Before They Get Deleted

If you like My contribution Then Please support me by getting an premium account




Direct Download


Tags: Devils, DVDRip

The Devils Chair 2007 DVDRip AC3 XviD LKRG Fast Download via Rapidshare Hotfile Fileserve Filesonic Megaupload, The Devils Chair 2007 DVDRip AC3 XviD LKRG Torrents and Emule Download or anything related.
Dear visitor, you went to website as unregistered user.
We encourage you to Register or Login to website under your name.
Information
Members of Guest cannot leave comments.