Miss Teacher (2015) 1080p - Web-hd - X264 - Aac - Team Ictv Exclusive

Category: Movie | Comment: 0

Download Now

Miss Teacher (2015) 1080p - Web-hd - X264 - Aac - Team Ictv Exclusive

Miss Teacher (2015) 1080p - Web-hd - X264 - Aac - Team Ictv Exclusive



Format
: MPEG-4
Format profile : Base Media
Codec ID
: isom
File size
: 2.34 GiB
Duration
: 2h 2mn
Overall bit rate : 2 733 Kbps
Writing application

: Lavf55.36.103

Video
ID : 1
Format
: AVC
Format/Info
: Advanced Video Codec
Format profile :
Format settings, CABAC : Yes
Format settings, ReFrames : 2 frames
Codec ID
: avc1
Codec ID/Info : Advanced Video Coding
Duration
: 2h 2mn
Bit rate
: 2 601 Kbps
Width
: 1 920 pixels
Height
: 1 080 pixels
Display aspect ratio : 16:9
Frame rate mode : Constant
Frame rate
: 25.000 fps
Color space
: YUV
Chroma subsampling

: 4:2:0
Bit depth
: 8 bits
Scan type
: Progressive
Bits/(Pixel*Frame)

: 0.050
Stream size
: 2.23 GiB (95%)
Color primaries : BT.709
Transfer characteristics : BT.709
Matrix coefficients

: BT.709
Color range
: Limited

Audio
ID : 2
Format
: AAC
Format/Info
: Advanced Audio Codec
Format profile : LC
Codec ID
: 40
Duration
: 2h 2mn
Bit rate mode : Constant
Bit rate
: 126 Kbps
Channel(s)
: 2 channels
Channel positions: Front: L R
Sampling rate : 44.1 KHz
Compression mode : Lossy
Stream size
: 110 MiB (5%)

Miss Teacher (2015) 1080p - Web-hd - X264 - Aac - Team Ictv Exclusive

Miss Teacher (2015) 1080p - Web-hd - X264 - Aac - Team Ictv Exclusive

Miss Teacher (2015) 1080p - Web-hd - X264 - Aac - Team Ictv Exclusive

:



DOWNLOAD LINKS:
Buy Premium To Support Me & Get Resumable Support & Max Speed


Links are Interchangeable - No Password - Single Extraction
Direct Download


Tags: Teacher, Exclusive

Miss Teacher (2015) 1080p - Web-hd - X264 - Aac - Team Ictv Exclusive Fast Download via Rapidshare Hotfile Fileserve Filesonic Megaupload, Miss Teacher (2015) 1080p - Web-hd - X264 - Aac - Team Ictv Exclusive Torrents and Emule Download or anything related.
Dear visitor, you went to website as unregistered user.
We encourage you to Register or Login to website under your name.
Information
Members of Guest cannot leave comments.