Elliott Smith - Albums Collection (1994-2007) (8CDs)

Category: Music | Comment: 0

Download Now

Elliott Smith - Albums Collection (1994-2007) (8CDs)

Elliott Smith - Albums Collection 1994-2007 (8CD) [Combined Repost]
EAC | FLAC | Image (Cue&Log) ~ 2.35 Gb (incl 5%) | Mp3 (CBR320/Stereo) ~ 1.1 Gb (incl 5%)
Genre: Indie Rock, Indie Folk, Lo-Fi, Sadcore | Time: 05:33:19 | Scans included

"Collection includes: Roman Candle (1994); Elliott Smith (1995); Either/Or (1997); XO (1998); Figure 8 (2000); From A Basement On The Hill (2004); New Moon (2007)."
"The celebrated folk-punk singer/songwriter Elliott Smith rose from indie obscurity to mainstream success in 1997 on the strength of "Miss Misery," his Academy Award-nominated song from the film Good Will Hunting. A native of Portland, OR, Smith began writing and recording his first songs at age 14, later becoming a fixture of the city's thriving music scene. As a member of the band Heatmiser, he debuted in 1993 with the LP Dead Air, issuing his first solo effort Roman Candle on the tiny Cavity Search label a year later. For his 1995 self-titled album, Smith signed with the noted Kill Rock Stars label. Either/Or followed in 1997, around the same time that filmmaker and longtime fan Gus Van Sant requested permission to use the singer's music in his upcoming Good Will Hunting.

Smith also composed a handful of new songs for the soundtrack, among them "Miss Misery," and when the Academy of Motion Picture Arts and Sciences announced its Oscar nominations the following February, the track was a surprise entry in the Best Original Song category. Although he did not win, Smith performed the song live at the televised Oscar broadcast, appearing on-stage alongside superstars Trisha Yearwood and Celine Dion in one of the most notably surreal musical moments in recent memory. Smith's DreamWorks label debut, XO, followed later in 1998. Two years later he delivered Figure 8, which delved further into lush arrangements and orchestrations. For the next two years, Smith labored over what was to be his next album, From a Basement on a Hill. He would not live to see the album's completion, however.

To the shock of friends and fans alike, Smith's body was found on October 21, 2003, with two stab wounds in his chest. To date, the coroner has been unable to determine the cause of death, and the Los Angeles Police Department's investigation remains open. From a Basement on a Hill was released one year later, just two days shy of the first anniversary of his death, and received warm critical nods. In 2007, the Kill Rock Stars label issued a two-disc set of Smith's unreleased work, all of which had been recorded between 1994 and 1997. Entitled New Moon, the 24-track collection contained three songs that had been previously released on hard to find compilations or soundtracks, including an early version of "Miss Misery" and a cover of Big Star's "Thirteen".

Biography by Jason Ankeny, Allmusic.com"
Elliott Smith - Albums Collection (1994-2007) (8CDs)
Elliott Smith - Albums Collection (1994-2007) (8CDs)
Elliott Smith - Albums Collection (1994-2007) (8CDs)
Website


---------------------------------------------------------------------------------

Elliott Smith - Albums Collection (1994-2007) (8CDs)
Roman Candle (1994)
EAC | FLAC | Image (Cue&Log) ~ 227 Mb (incl 5%) | Mp3 (CBR320/Stereo) ~ 120 Mb (incl 5%)
Label: Cavity Search | # CSR13 | Time: 00:30:29 | Scans included

"Elliott Smith began his career like most aspiring musicians in the Northwestern states: putting in the requisite hours in a grunge band. Being a team player, however, is not Smith's forte. After those buzzy shows in the bars of Portland, OR, he would retreat backstage with his acoustic guitar and whisper his own quiet songs to himself. This album is his first attempt to record those songs, and they capture that feeling perfectly: a loner retreating from the noisy tension of life with others, finding solace in musical solitude. Roman Candle was, in fact, recorded in solitude on a four-track in a basement. Smith played all the instruments himself. He has said that he's always surprised when people call his songs "sad," because playing them always made him happy. You can hear that reclusive joy in the light bounce of the melodies and hushed harmonies (which recall Simon & Garfunkel). But his lyrics are haunted by the downbeat, drug-addled life from which he was retreating. For all their cryptic cleverness, there is a restless unhappiness in his fragmented stories of alienated urbanites. After that description, a reference to the definitive folk loner, Nick Drake, is inevitable. Smith's whispery vocals and able fingerpicking deserve the comparison. The highlight of Roman Candle is the title track. The quietly driving acoustic guitars and threatening bass create a disturbing portrait of a human time bomb, barely containing a seething and simmering undercurrent of bitterness. The rest of the album, by comparison, is pure sunlight.

Review by Darryl Cater, Allmusic.com"
Tracklist:

01. Roman Candle (3:37)
02. Condor Ave (3:34)
03. No Name #1 (3:03)
04. No Name #2 (3:34)
05. No Name #3 (3:13)
06. Drive All Over Town (2:36)
07. No Name #4 (2:30)
08. Last Call (4:38)
09. Kiwi Maddog 20/20 (3:40)


Exact Audio Copy V1.0 beta 3 from 29. August 2011

Отчёт EAC об извлечении, выполненном 28. августа 2013, 13:43

Elliott Smith / Roman Candle

Дисковод: ASUS DRW-2014L1T Adapter: 3 ID: 0

Режим чтения : Достоверность
Использование точного потока : Да
Отключение кэша аудио : Да
Использование указателей C2 : Нет

Коррекция смещения при чтении : 6
Способность читать области Lead-in и Lead-out : Нет
Заполнение пропущенных сэмплов тишиной : Да
Удаление блоков с тишиной в начале и конце : Нет
При вычислениях CRC использовались нулевые сэмплы : Да
Интерфейс : Встроенный Win32-интерфейс для Win NT/2000

Выходной формат : Пользовательский кодировщик
Выбранный битрейт : 128 kBit/s
Качество : Высокий
Добавление ID3-тега : Нет
Утилита сжатия : C:\Program Files\Exact Audio Copy\Flac\flac.exe
Дополнительные параметры : -V -8 -T "Date=%year%" -T "Genre=%genre%" %source%

TOC извлечённого CD

Трек | Старт | Длительность | Начальный сектор | Конечный сектор
---------------------------------------------------------------------
1 | 0:00.30 | 3:37.24 | 30 | 16328
2 | 3:37.54 | 3:34.65 | 16329 | 32443
3 | 7:12.44 | 3:03.06 | 32444 | 46174
4 | 10:15.50 | 3:34.61 | 46175 | 62285
5 | 13:50.36 | 3:13.20 | 62286 | 76780
6 | 17:03.56 | 2:36.51 | 76781 | 88531
7 | 19:40.32 | 2:30.01 | 88532 | 99782
8 | 22:10.33 | 4:38.02 | 99783 | 120634
9 | 26:48.35 | 3:40.62 | 120635 | 137196

Характеристики диапазона извлечения и сообщения об ошибках

Выбранный диапазон

Имя файла E:\Torrent Downloads\Music\Elliott Smith - Discography\Albums\1994 - Roman Candle\Elliott Smith - Roman Candle.wav

Пиковый уровень 80.4 %
Скорость извлечения 4.9 X
Качество диапазона 99.9 %
CRC теста 548B7DF4
CRC копии 548B7DF4
Копирование... OK

Ошибок не произошло


AccurateRip: сводка

Трек 1 : извлечено точно (доверие 4) [C3DB257E] (AR v2)
Трек 2 : извлечено точно (доверие 4) [6AD87D69] (AR v2)
Трек 3 : извлечено точно (доверие 4) [AE199727] (AR v2)
Трек 4 : извлечено точно (доверие 4) [B4F23A68] (AR v2)
Трек 5 : извлечено точно (доверие 4) [2476A046] (AR v2)
Трек 6 : извлечено точно (доверие 4) [B6EFB892] (AR v2)
Трек 7 : извлечено точно (доверие 4) [0460D6A0] (AR v2)
Трек 8 : извлечено точно (доверие 4) [BCBC362E] (AR v2)
Трек 9 : извлечено точно (доверие 4) [5E5E9EDD] (AR v2)

Все треки извлечены точно

Конец отчёта

==== Контрольная сумма отчёта 9EB446F907420954E04F1CA66D4038DEF2C61292CA5554BE78487361E40418C8 ====

foobar2000 1.2 / Dynamic Range Meter 1.1.1
log date: 2013-10-17 20:08:27

--------------------------------------------------------------------------------
Analyzed: Elliott Smith / Roman Candle
--------------------------------------------------------------------------------

DR Peak RMS Duration Track
--------------------------------------------------------------------------------
DR12 -3.03 dB -18.34 dB 3:37 01-Roman Candle
DR13 -2.96 dB -17.75 dB 3:35 02-Condor Ave
DR14 -2.20 dB -18.19 dB 3:03 03-No Name #1
DR13 -1.89 dB -18.27 dB 3:35 04-No Name #2
DR14 -2.89 dB -19.00 dB 3:13 05-No Name #3
DR13 -2.83 dB -19.56 dB 2:37 06-Drive All Over Town
DR14 -3.03 dB -19.74 dB 2:30 07-No Name #4
DR11 -1.96 dB -14.98 dB 4:38 08-Last Call
DR13 -3.28 dB -18.70 dB 3:41 09-Kiwi Maddog 20/20
--------------------------------------------------------------------------------

Number of tracks: 9
Official DR value: DR13

Samplerate: 44100 Hz
Channels: 2
Bits per sample: 16
Bitrate: 789 kbps
Codec: FLAC
================================================================================

---------------------------------------------------------------------------------

Elliott Smith - Albums Collection (1994-2007) (8CDs)
Elliott Smith (1995)
EAC | FLAC | Image (Cue&Log) ~ 292 Mb (incl 5%) | Mp3 (CBR320/Stereo) ~ 139 Mb (incl 5%)
Label: Kill Rock Stars | # KRS 246 | Time: 00:37:24 | Scans included

"Elliott Smith's self-titled second album was his first for the Kill Rock Stars label and also his first major artistic statement. Its sound is fairly similar to that of Roman Candle -- it's mostly just Smith and his gently fingerpicked acoustic guitar, embellished a bit more often with drums, harmony vocals, and the odd additional instrument. The main difference here is that Smith's melodies and lyrics reveal their greater strength and substance with repeated listens. And make no mistake, the songs do require repeated listens -- not just because of Smith's often whispery, spiderweb-thin delivery, but also because of his deceptively angular melodies and chord progressions, which threaten to float away until the listener hears them enough to latch on and know where they're going. Smith is often compared to Paul Simon or the Beatles in their softer moments, but perhaps the best touchstone for this early sound is Nick Drake's even more minimalistic Pink Moon; while Smith's language is rawer and tougher than Drake's haunting poetics, his songs also deal with depression and loneliness, creating an almost uncomfortable intimacy with their bare-bones arrangements. The quiet prettiness of Smith's sound can make it easy to overlook the darker, edgier side of his songs -- many of Smith's embittered characters cope with their dysfunctional relationships or breakups through substance abuse, while some of the lyrics read more like angry, defiant punk rants when separated from the music. Smith would flesh out his sound with the albums to come, but Elliott Smith contains the blueprint for his later successes, and more importantly, it's a fully realized work itself.

Review by Steve Huey, Allmusic.com"
Tracklist:

01. Needle In The Hay (4:16)
02. Christian Brothers (4:30)
03. Clementine (2:46)
04. Southern Belle (3:06)
05. Single File (2:26)
06. Coming Up Roes (3:10)
07. Satellite (2:25)
08. Alphabet Town (4:11)
09. St. Ides Heaven (3:00)
10. Good To Go (2:24)
11. The White Lady Loves You More (2:24)
12. The Biggest Lie (2:39)


Exact Audio Copy V1.0 beta 3 from 29. August 2011

Отчёт EAC об извлечении, выполненном 28. августа 2013, 14:04

Elliott Smith / Elliott Smith

Дисковод: ASUS DRW-2014L1T Adapter: 3 ID: 0

Режим чтения : Достоверность
Использование точного потока : Да
Отключение кэша аудио : Да
Использование указателей C2 : Нет

Коррекция смещения при чтении : 6
Способность читать области Lead-in и Lead-out : Нет
Заполнение пропущенных сэмплов тишиной : Да
Удаление блоков с тишиной в начале и конце : Нет
При вычислениях CRC использовались нулевые сэмплы : Да
Интерфейс : Встроенный Win32-интерфейс для Win NT/2000

Выходной формат : Пользовательский кодировщик
Выбранный битрейт : 128 kBit/s
Качество : Высокий
Добавление ID3-тега : Нет
Утилита сжатия : C:\Program Files\Exact Audio Copy\Flac\flac.exe
Дополнительные параметры : -V -8 -T "Date=%year%" -T "Genre=%genre%" %source%

TOC извлечённого CD

Трек | Старт | Длительность | Начальный сектор | Конечный сектор
---------------------------------------------------------------------
1 | 0:00.00 | 4:16.44 | 0 | 19243
2 | 4:16.44 | 4:30.54 | 19244 | 39547
3 | 8:47.23 | 2:46.24 | 39548 | 52021
4 | 11:33.47 | 3:06.26 | 52022 | 65997
5 | 14:39.73 | 2:26.34 | 65998 | 76981
6 | 17:06.32 | 3:10.43 | 76982 | 91274
7 | 20:17.00 | 2:25.59 | 91275 | 102208
8 | 22:42.59 | 4:11.59 | 102209 | 121092
9 | 26:54.43 | 3:00.09 | 121093 | 134601
10 | 29:54.52 | 2:24.44 | 134602 | 145445
11 | 32:19.21 | 2:24.60 | 145446 | 156305
12 | 34:44.06 | 2:39.56 | 156306 | 168286

Характеристики диапазона извлечения и сообщения об ошибках

Выбранный диапазон

Имя файла E:\Torrent Downloads\Music\Elliott Smith - Discography\Albums\1995 - Elliott Smith\Elliott Smith - Elliott Smith.wav

Пиковый уровень 99.9 %
Скорость извлечения 7.5 X
Качество диапазона 100.0 %
CRC теста 890A4E65
CRC копии 890A4E65
Копирование... OK

Ошибок не произошло


AccurateRip: сводка

Трек 1 : извлечено точно (доверие 3) [ABE92C46] (AR v2)
Трек 2 : извлечено точно (доверие 3) [6ABBA872] (AR v2)
Трек 3 : извлечено точно (доверие 3) [41F703F2] (AR v2)
Трек 4 : извлечено точно (доверие 3) [16B19AC8] (AR v2)
Трек 5 : извлечено точно (доверие 3) [59C119A3] (AR v2)
Трек 6 : извлечено точно (доверие 3) [3062D8C1] (AR v2)
Трек 7 : извлечено точно (доверие 3) [C38D952C] (AR v2)
Трек 8 : извлечено точно (доверие 3) [8280DF78] (AR v2)
Трек 9 : извлечено точно (доверие 3) [56EFA21F] (AR v2)
Трек 10 : извлечено точно (доверие 3) [CCE3AE89] (AR v2)
Трек 11 : извлечено точно (доверие 3) [08CC6896] (AR v2)
Трек 12 : извлечено точно (доверие 3) [CAF1A861] (AR v2)

Все треки извлечены точно

Конец отчёта

==== Контрольная сумма отчёта B36893F3BEECD4F792DFEC0F39D21944E47D1909191C11579DFF1F8382B65DBC ====

foobar2000 1.2 / Dynamic Range Meter 1.1.1
log date: 2013-10-17 20:08:42

--------------------------------------------------------------------------------
Analyzed: Elliott Smith / Elliott Smith
--------------------------------------------------------------------------------

DR Peak RMS Duration Track
--------------------------------------------------------------------------------
DR12 -0.49 dB -14.39 dB 4:17 01-Needle in the Hay
DR11 -0.47 dB -14.78 dB 4:31 02-Christian Brothers
DR15 -0.36 dB -17.50 dB 2:46 03-Clementine
DR12 -0.35 dB -16.54 dB 3:06 04-Southern Belle
DR13 -0.45 dB -15.45 dB 2:26 05-Single File
DR12 -0.42 dB -15.35 dB 3:11 06-Coming Up Roses
DR15 -0.57 dB -17.59 dB 2:26 07-Satellite
DR11 0.00 dB -14.48 dB 4:12 08-Alphabet Town
DR12 -0.34 dB -15.00 dB 3:00 09-St. Ides Heaven
DR13 -1.44 dB -16.33 dB 2:25 10-Good to Go
DR14 -0.80 dB -17.84 dB 2:25 11-The White Lady Loves You More
DR13 -1.37 dB -16.32 dB 2:40 12-The Biggest Lie
--------------------------------------------------------------------------------

Number of tracks: 12
Official DR value: DR13

Samplerate: 44100 Hz
Channels: 2
Bits per sample: 16
Bitrate: 866 kbps
Codec: FLAC
================================================================================

---------------------------------------------------------------------------------

Elliott Smith - Albums Collection (1994-2007) (8CDs)
Either / Or (1997)
EAC | FLAC | Image (Cue&Log) ~ 261 Mb (incl 5%) | Mp3 (CBR320/Stereo) ~ 130 Mb (incl 5%)
Label: Kill Rock Stars | # KRS 269 | Time: 00:36:59 | Scans included

"Elliott Smith's third album sees his one-man show getting a little more ambitious. While he still plays all the instruments himself, he plays more of them. Several of the songs mimic the melody mastery of pop bands from 1960s. The most alluring numbers, however, are still his quietly melancholy acoustic ones. While the full-band songs are catchy and smart, Smith's recording equipment isn't quite up to the standards set by the Beatles and the Beach Boys. The humbler arrangements are better suited to the sparse equipment. "Between the Bars," for example, plays Smith's strengths perfectly. He sings, in his endearingly limited whisper, of late-night drinking and introspection, and his subdued strumming creates a minor-key mood befitting the mysteries of self. "Angeles" is equally ethereal -- Smith's acoustic fingerpicking spins out notes which briskly move around a single atmospheric keyboard chord, like aural minnows swimming toward a solitary light at the surface of the water. The lyrics are a darkly biting rejection of the hypercapitalist dream machinery of Los Angeles (it would make a great theme song for Smith's label, Kill Rock Stars). Ironically, "Angeles" was included on the Good Will Hunting soundtrack, which won Smith the acclaim of Hollywood's biggest, brightest, and best connected voting body, the Academy of Motion Picture Arts & Sciences. Smith's stock in L.A. soared after he took his bow at the Oscars with Celine Dion and Trisha Yearwood. It might have been more interesting had he sung "Angeles."

Review by Darryl Cater, Allmusic.com"
Tracklist:

01. Spped Trials (3:01)
02. Alameda (3:43)
03. Ballad Of Big Nothing (2:48)
04. Between The Bars (2:21)
05. Pictures Of Me (3:46)
06. No Name No. 5 (3:43)
07. Rose Parade (3:28)
08. Punch And Judy (2:25)
09. Angeles (2:56)
10. Cupid's Trick (3:04)
11. 2:45 AM (3:18)
12. Say Yes (2:18)


Exact Audio Copy V1.0 beta 3 from 29. August 2011

Отчёт EAC об извлечении, выполненном 28. августа 2013, 14:22

Elliott Smith / Either/Or

Дисковод: ASUS DRW-2014L1T Adapter: 3 ID: 0

Режим чтения : Достоверность
Использование точного потока : Да
Отключение кэша аудио : Да
Использование указателей C2 : Нет

Коррекция смещения при чтении : 6
Способность читать области Lead-in и Lead-out : Нет
Заполнение пропущенных сэмплов тишиной : Да
Удаление блоков с тишиной в начале и конце : Нет
При вычислениях CRC использовались нулевые сэмплы : Да
Интерфейс : Встроенный Win32-интерфейс для Win NT/2000

Выходной формат : Пользовательский кодировщик
Выбранный битрейт : 128 kBit/s
Качество : Высокий
Добавление ID3-тега : Нет
Утилита сжатия : C:\Program Files\Exact Audio Copy\Flac\flac.exe
Дополнительные параметры : -V -8 -T "Date=%year%" -T "Genre=%genre%" %source%

TOC извлечённого CD

Трек | Старт | Длительность | Начальный сектор | Конечный сектор
---------------------------------------------------------------------
1 | 0:00.00 | 3:01.22 | 0 | 13596
2 | 3:01.22 | 3:43.30 | 13597 | 30351
3 | 6:44.52 | 2:48.25 | 30352 | 42976
4 | 9:33.02 | 2:21.15 | 42977 | 53566
5 | 11:54.17 | 3:46.73 | 53567 | 70589
6 | 15:41.15 | 3:43.37 | 70590 | 87351
7 | 19:24.52 | 3:28.35 | 87352 | 102986
8 | 22:53.12 | 2:25.53 | 102987 | 113914
9 | 25:18.65 | 2:56.62 | 113915 | 127176
10 | 28:15.52 | 3:04.70 | 127177 | 141046
11 | 31:20.47 | 3:18.73 | 141047 | 155969
12 | 34:39.45 | 2:19.00 | 155970 | 166394

Характеристики диапазона извлечения и сообщения об ошибках

Выбранный диапазон

Имя файла E:\Torrent Downloads\Music\Elliott Smith - Discography\Albums\1997 - Either Or\Elliott Smith - Either,Or.wav

Пиковый уровень 98.8 %
Скорость извлечения 7.5 X
Качество диапазона 100.0 %
CRC теста CE19F3E8
CRC копии CE19F3E8
Копирование... OK

Ошибок не произошло


AccurateRip: сводка

Трек 1 точность не определена (достоверность 41) [A2D667D9], AccurateRip вернул [1667ADC7] (AR v2)
Трек 2 точность не определена (достоверность 41) [DFC06DDD], AccurateRip вернул [46A48D08] (AR v2)
Трек 3 точность не определена (достоверность 41) [F001E511], AccurateRip вернул [335E49EC] (AR v2)
Трек 4 точность не определена (достоверность 41) [FE99092C], AccurateRip вернул [74B33912] (AR v2)
Трек 5 точность не определена (достоверность 42) [FFC81534], AccurateRip вернул [C493AB35] (AR v2)
Трек 6 точность не определена (достоверность 42) [2629891C], AccurateRip вернул [7060767F] (AR v2)
Трек 7 точность не определена (достоверность 43) [D0837E02], AccurateRip вернул [C3F8C965] (AR v2)
Трек 8 точность не определена (достоверность 41) [E81903B3], AccurateRip вернул [F8192CC8] (AR v2)
Трек 9 точность не определена (достоверность 40) [6B5772EA], AccurateRip вернул [D5C7EE78] (AR v2)
Трек 10 точность не определена (достоверность 42) [41D120B3], AccurateRip вернул [F45AF881] (AR v2)
Трек 11 точность не определена (достоверность 42) [91A474F5], AccurateRip вернул [3F819BFD] (AR v2)
Трек 12 точность не определена (достоверность 43) [A2A7FAAB], AccurateRip вернул [E6D094AB] (AR v2)

Ни один трек не прошёл проверки на точность
В вашей базе может быть иной вариант штамповки диска

Конец отчёта

==== Контрольная сумма отчёта 0C72C1F42E62928EA9ED597A998CC399B727285033C4F520AEBD9D0DC3A9E102 ====

foobar2000 1.2 / Dynamic Range Meter 1.1.1
log date: 2013-10-17 20:09:05

--------------------------------------------------------------------------------
Analyzed: Elliott Smith / Either/Or
--------------------------------------------------------------------------------

DR Peak RMS Duration Track
--------------------------------------------------------------------------------
DR11 -0.10 dB -13.60 dB 3:01 01-Speed Trials
DR10 -0.37 dB -13.23 dB 3:43 02-Alameda
DR9 -0.18 dB -10.56 dB 2:48 03-Ballad of Big Nothing
DR11 -1.58 dB -14.15 dB 2:21 04-Between The Bars
DR9 -0.21 dB -11.78 dB 3:47 05-Pictures Of Me
DR11 -0.59 dB -15.49 dB 3:43 06-No Name No. 5
DR10 -0.10 dB -12.92 dB 3:28 07-Rose Parade
DR12 -0.74 dB -13.93 dB 2:26 08-Punch And Judy
DR11 -4.40 dB -17.40 dB 2:57 09-Angeles
DR9 -0.44 dB -11.88 dB 3:05 10-Cupid's Trick
DR12 -0.45 dB -18.38 dB 3:19 11-2:45 AM
DR11 -1.60 dB -16.06 dB 2:19 12-Say Yes
--------------------------------------------------------------------------------

Number of tracks: 12
Official DR value: DR10

Samplerate: 44100 Hz
Channels: 2
Bits per sample: 16
Bitrate: 794 kbps
Codec: FLAC
================================================================================

---------------------------------------------------------------------------------

Elliott Smith - Albums Collection (1994-2007) (8CDs)
XO (1998)
EAC | FLAC | Image (Cue&Log) ~ 337 Mb (incl 5%) | Mp3 (CBR320/Stereo) ~ 147 Mb (incl 5%)
Label: DreamWorks | # DRD 50048 | Time: 00:44:45 | Scans included

"A year before his major-label debut, XO, was released, it seemed unlikely that Elliott Smith would even be on a major, let alone having his record be one of the more anticipated releases of 1998. He had certainly earned a great deal of critical respect with his low-key, acoustic indie records and was emerging as a respected songwriter, but he hadn't made much of an impression outside of journalists, record collectors, and indie rockers. An Oscar nomination can change things, however. "Miss Misery," one of Smith's elegantly elegiac songs for Gus Van Sant's Good Will Hunting, unexpectedly earned an Academy Award nomination, and he was immediately thrust into the spotlight. He was reluctant to embrace instant celebrity, yet he didn't refuse a contract with DreamWorks, and he didn't shy away from turning XO into a glorious fruition of his talents. Smith's songs remain intensely introspective, yet the lush, Beatlesque production provides a terrifically charming counterpoint. His sweetly dark melodies are vividly brought to life with the detailed arrangements, and they sell Smith's tormented songs -- it's easy to get caught up in the tunes and the sound of the record, then realize later what the songs are actually about. That's a sign of a good craftsman, and XO proves that not only can Elliott Smith craft a song, but he knows how to make an alluring pop record as well.

Review by Stephen Thomas Erlewine, Allmusic.com"
Tracklist:

01. Sweet Adeline (3:05)
02. Tomorrow Tomorrow (3:07)
03. Waltz #2 (XO) (4:40)
04. Baby Britain (3:13)
05. Pitseleh (3:22)
06. Independence Day (3:04)
07. Bled White (3:22)
08. Waltz #1 (2:20)
09. Amity (2:33)
10. Oh, Well, Okay (2:58)
11. Bottle Up And Explode! (2:41)
12. A Question Mark ()
13. Everybody Cares, Everybody Understands (4:25)
14. I Didn't Understand (2:17)


Exact Audio Copy V1.0 beta 3 from 29. August 2011

Отчёт EAC об извлечении, выполненном 28. августа 2013, 14:39

Elliott Smith / XO

Дисковод: ASUS DRW-2014L1T Adapter: 3 ID: 0

Режим чтения : Достоверность
Использование точного потока : Да
Отключение кэша аудио : Да
Использование указателей C2 : Нет

Коррекция смещения при чтении : 6
Способность читать области Lead-in и Lead-out : Нет
Заполнение пропущенных сэмплов тишиной : Да
Удаление блоков с тишиной в начале и конце : Нет
При вычислениях CRC использовались нулевые сэмплы : Да
Интерфейс : Встроенный Win32-интерфейс для Win NT/2000

Выходной формат : Пользовательский кодировщик
Выбранный битрейт : 128 kBit/s
Качество : Высокий
Добавление ID3-тега : Нет
Утилита сжатия : C:\Program Files\Exact Audio Copy\Flac\flac.exe
Дополнительные параметры : -V -8 -T "Date=%year%" -T "Genre=%genre%" %source%

TOC извлечённого CD

Трек | Старт | Длительность | Начальный сектор | Конечный сектор
---------------------------------------------------------------------
1 | 0:00.00 | 3:15.65 | 0 | 14689
2 | 3:15.65 | 3:07.12 | 14690 | 28726
3 | 6:23.02 | 4:40.05 | 28727 | 49731
4 | 11:03.07 | 3:13.58 | 49732 | 64264
5 | 14:16.65 | 3:22.42 | 64265 | 79456
6 | 17:39.32 | 3:04.68 | 79457 | 93324
7 | 20:44.25 | 3:22.42 | 93325 | 108516
8 | 24:06.67 | 3:22.38 | 108517 | 123704
9 | 27:29.30 | 2:20.02 | 123705 | 134206
10 | 29:49.32 | 2:33.33 | 134207 | 145714
11 | 32:22.65 | 2:58.02 | 145715 | 159066
12 | 35:20.67 | 2:41.10 | 159067 | 171151
13 | 38:02.02 | 4:25.08 | 171152 | 191034
14 | 42:27.10 | 2:17.37 | 191035 | 201346

Характеристики диапазона извлечения и сообщения об ошибках

Выбранный диапазон

Имя файла E:\Torrent Downloads\Music\Elliott Smith - Discography\Albums\1998 - XO\Elliott Smith - XO.wav

Пиковый уровень 98.8 %
Скорость извлечения 8.1 X
Качество диапазона 100.0 %
CRC теста D5967D3C
CRC копии D5967D3C
Копирование... OK

Ошибок не произошло


AccurateRip: сводка

Трек 1 : извлечено точно (доверие 23) [C47E23C4] (AR v2)
Трек 2 : извлечено точно (доверие 23) [288B20A3] (AR v2)
Трек 3 : извлечено точно (доверие 23) [D30BBF34] (AR v2)
Трек 4 : извлечено точно (доверие 23) [B702C950] (AR v2)
Трек 5 : извлечено точно (доверие 23) [A417DB43] (AR v2)
Трек 6 : извлечено точно (доверие 23) [078D03E4] (AR v2)
Трек 7 : извлечено точно (доверие 23) [DFC38FE7] (AR v2)
Трек 8 : извлечено точно (доверие 23) [809B3E8B] (AR v2)
Трек 9 : извлечено точно (доверие 23) [F3699085] (AR v2)
Трек 10 : извлечено точно (доверие 23) [028EC28B] (AR v2)
Трек 11 : извлечено точно (доверие 23) [6645804F] (AR v2)
Трек 12 : извлечено точно (доверие 23) [5D476259] (AR v2)
Трек 13 : извлечено точно (доверие 23) [0C699D62] (AR v2)
Трек 14 : извлечено точно (доверие 23) [33BFDB3D] (AR v2)

Все треки извлечены точно

Конец отчёта

==== Контрольная сумма отчёта 12EF0AB43403EE6DAC7262D0491022398BC82EB3FC0B8883AA93B49A5B0F5003 ====

foobar2000 1.2 / Dynamic Range Meter 1.1.1
log date: 2013-10-17 20:09:22

--------------------------------------------------------------------------------
Analyzed: Elliott Smith / XO
--------------------------------------------------------------------------------

DR Peak RMS Duration Track
--------------------------------------------------------------------------------
DR8 -1.60 dB -12.50 dB 3:16 01-Sweet Adeline
DR9 -2.40 dB -14.23 dB 3:07 02-Tomorrow Tomorrow
DR7 -0.20 dB -9.94 dB 4:40 03-Waltz #2 (XO)
DR8 -0.10 dB -9.41 dB 3:14 04-Baby Britain
DR9 -2.12 dB -13.94 dB 3:23 05-Pitseleh
DR7 -0.40 dB -10.18 dB 3:05 06-Independence Day
DR7 -0.10 dB -8.78 dB 3:23 07-Bled White
DR9 -2.08 dB -13.55 dB 3:23 08-Waltz #1
DR6 -0.50 dB -8.41 dB 2:20 09-Amity
DR8 -2.23 dB -13.87 dB 2:33 10-Oh Well, Okay
DR7 -0.20 dB -10.02 dB 2:58 11-Bottle Up and Explode!
DR7 -0.10 dB -8.41 dB 2:41 12-A Question Mark
DR8 -0.10 dB -11.93 dB 4:25 13-Everybody Cares, Everybody Understands
DR9 -2.59 dB -13.82 dB 2:17 14-I Didn't Understand
--------------------------------------------------------------------------------

Number of tracks: 14
Official DR value: DR8

Samplerate: 44100 Hz
Channels: 2
Bits per sample: 16
Bitrate: 888 kbps
Codec: FLAC
================================================================================

---------------------------------------------------------------------------------

Elliott Smith - Albums Collection (1994-2007) (8CDs)
Figure 8 (2000)
EAC | FLAC | Image (Cue&Log) ~ 382 Mb (incl 5%) | Mp3 (CBR320/Stereo) ~ 164 Mb (incl 5%)
Label: DreamWorks | # 450 225-2 | Time: 00:52:14 | Scans included

"Judging only by his earlier, bare-bones indie-label albums, it seemed highly unlikely that Elliott Smith would turn into the ambitious arranger and studio craftsman of his lushly textured Dreamworks debut, XO. A big part of that shift, of course, was the fact that Smith had major-label finances and equipment to work with for the first time; this allowed him to fuse his melancholy, slightly punky folk with the rich sonics of pop artists like the Beatles and Beach Boys. Smith continues in that direction for the follow-up, Figure 8, an even more sonically detailed effort laden with orchestrations and inventive production touches. With a couple of exceptions, the sound of Smith's melancholy has largely shifted from edgy to sighingly graceful, although his lyrics are as dark as ever. Even if the subject matter stays in familiar territory, though, the backing tracks are another matter -- a gorgeous, sweeping kaleidoscope of layered instruments and sonic textures. Smith fleshes his songs out with assurance and imagination, and that newfound sense of mastery is ultimately the record's real emphasis; there's seemingly a subtle new wrinkle to the sound of every track, and yet it's all easily recognizable as trademark Smith. Even if it is a very impressive statement overall, Figure 8 isn't quite the masterpiece it wants to be -- there's something about the pacing that just makes the record feel long (at over 52 minutes, it is the longest album in Smith's catalog), and it can sometimes float away from the listener's consciousness. Perhaps it's that Smith's songwriting does slip on occasion here, which means that those weaker tracks sink under the weight of arrangements they aren't equipped to support. Still, most of the songs do reveal their strengths with repeated plays, and it's worth the price of a few nondescript items to reap the rewards of the vast majority. Fans who miss the intimacy of his Kill Rock Stars records won't find much to rejoice about here, but overall, Figure 8 comes tantalizingly close to establishing Elliott Smith as the consummate pop craftsman he's bidding to become.

Review by Steve Huey, Allmusic.com"
Tracklist:

01. Son Of Sam (3:04)
02. Somebody That I Used To Know (2:09)
03. Junk Bond Trader (3:50)
04. Everything Reminds Me Of Her (2:38)
05. Everything Means Nothing To Me (2:24)
06. L A (3:14)
07. In The Lost And Found (Honky Bach) (4:33)
08. Stupidity Tries (4:24)
09. Easy Way Out (2:44)
10. Wouldn't Mama Be Proud? (3:26)
11. Color Bars (2:20)
12. Happiness/The Gondola Man (5:04)
13. Pretty Mary K (2:36)
14. I Better Be Quiet Now (3:35)
15. Can't Make A Sound (4:19)
16. Bye (1:53)


Exact Audio Copy V1.0 beta 3 from 29. August 2011

Отчёт EAC об извлечении, выполненном 28. августа 2013, 15:04

Elliott Smith / Figure 8

Дисковод: ASUS DRW-2014L1T Adapter: 3 ID: 0

Режим чтения : Достоверность
Использование точного потока : Да
Отключение кэша аудио : Да
Использование указателей C2 : Нет

Коррекция смещения при чтении : 6
Способность читать области Lead-in и Lead-out : Нет
Заполнение пропущенных сэмплов тишиной : Да
Удаление блоков с тишиной в начале и конце : Нет
При вычислениях CRC использовались нулевые сэмплы : Да
Интерфейс : Встроенный Win32-интерфейс для Win NT/2000

Выходной формат : Пользовательский кодировщик
Выбранный битрейт : 128 kBit/s
Качество : Высокий
Добавление ID3-тега : Нет
Утилита сжатия : C:\Program Files\Exact Audio Copy\Flac\flac.exe
Дополнительные параметры : -V -8 -T "Date=%year%" -T "Genre=%genre%" %source%

TOC извлечённого CD

Трек | Старт | Длительность | Начальный сектор | Конечный сектор
---------------------------------------------------------------------
1 | 0:00.00 | 3:04.22 | 0 | 13821
2 | 3:04.22 | 2:09.25 | 13822 | 23521
3 | 5:13.47 | 3:49.53 | 23522 | 40749
4 | 9:03.25 | 2:37.55 | 40750 | 52579
5 | 11:41.05 | 2:24.27 | 52580 | 63406
6 | 14:05.32 | 3:14.05 | 63407 | 77961
7 | 17:19.37 | 4:32.60 | 77962 | 98421
8 | 21:52.22 | 4:24.03 | 98422 | 118224
9 | 26:16.25 | 2:44.17 | 118225 | 130541
10 | 29:00.42 | 3:25.60 | 130542 | 145976
11 | 32:26.27 | 2:19.60 | 145977 | 156461
12 | 34:46.12 | 5:04.30 | 156462 | 179291
13 | 39:50.42 | 2:35.73 | 179292 | 190989
14 | 42:26.40 | 3:35.00 | 190990 | 207114
15 | 46:01.40 | 4:18.57 | 207115 | 226521
16 | 50:20.22 | 1:53.18 | 226522 | 235014

Характеристики диапазона извлечения и сообщения об ошибках

Выбранный диапазон

Имя файла E:\Torrent Downloads\Music\Elliott Smith - Discography\Albums\2000 - Figure 8\Elliott Smith - Figure 8.wav

Пиковый уровень 98.8 %
Скорость извлечения 8.3 X
Качество диапазона 100.0 %
CRC теста 09F01EEB
CRC копии 09F01EEB
Копирование... OK

Ошибок не произошло


AccurateRip: сводка

Трек 1 : извлечено точно (доверие 20) [48D6A340] (AR v2)
Трек 2 : извлечено точно (доверие 20) [FF05D009] (AR v2)
Трек 3 : извлечено точно (доверие 20) [53EF8786] (AR v2)
Трек 4 : извлечено точно (доверие 20) [28F37278] (AR v2)
Трек 5 : извлечено точно (доверие 20) [80F23867] (AR v2)
Трек 6 : извлечено точно (доверие 20) [CC0C755F] (AR v2)
Трек 7 : извлечено точно (доверие 20) [92A289AC] (AR v2)
Трек 8 : извлечено точно (доверие 20) [E05951D3] (AR v2)
Трек 9 : извлечено точно (доверие 20) [3671B501] (AR v2)
Трек 10 : извлечено точно (доверие 20) [7780C183] (AR v2)
Трек 11 : извлечено точно (доверие 20) [4840F60B] (AR v2)
Трек 12 : извлечено точно (доверие 20) [E368B076] (AR v2)
Трек 13 : извлечено точно (доверие 20) [F46A25E5] (AR v2)
Трек 14 : извлечено точно (доверие 19) [CAD0EF30] (AR v2)
Трек 15 : извлечено точно (доверие 20) [3775B668] (AR v2)
Трек 16 : извлечено точно (доверие 20) [8631F6BC] (AR v2)

Все треки извлечены точно

Конец отчёта

==== Контрольная сумма отчёта 0F8ED152B6A6E4368AF4C18AAEA07F2A6A6B067CE89C0D51FEC28C3679D87EDD ====

foobar2000 1.2 / Dynamic Range Meter 1.1.1
log date: 2013-10-17 20:09:38

--------------------------------------------------------------------------------
Analyzed: Elliott Smith / Figure 8
--------------------------------------------------------------------------------

DR Peak RMS Duration Track
--------------------------------------------------------------------------------
DR7 -0.10 dB -8.70 dB 3:04 01-Son of Sam
DR9 -3.10 dB -13.91 dB 2:09 02-Somebody That I Used to Know
DR9 -0.20 dB -10.50 dB 3:50 03-Junk Bond Trader
DR11 -3.10 dB -17.86 dB 2:38 04-Everything Reminds Me of Her
DR6 -0.10 dB -10.64 dB 2:24 05-Everything Means Nothing to Me
DR7 -0.40 dB -9.48 dB 3:14 06-LA
DR8 -0.50 dB -12.02 dB 4:33 07-In the Lost and Found (Honky Bach)_The Roost
DR7 -0.10 dB -8.91 dB 4:24 08-Stupidity Tries
DR8 -3.60 dB -12.76 dB 2:44 09-Easy Way Out
DR8 -0.50 dB -10.11 dB 3:26 10-Wouldn't Momma Be Proud
DR8 -0.10 dB -11.31 dB 2:20 11-Color Bars
DR8 -0.10 dB -10.05 dB 5:04 12-Happiness_The Gondola Man
DR7 -0.10 dB -10.06 dB 2:36 13-Pretty Mary K
DR10 -4.10 dB -15.99 dB 3:35 14-I Better Be Quiet Now
DR5 -0.10 dB -8.94 dB 4:19 15-Can't Make a Sound
DR10 -3.54 dB -17.65 dB 1:53 16-Bye
--------------------------------------------------------------------------------

Number of tracks: 16
Official DR value: DR8

Samplerate: 44100 Hz
Channels: 2
Bits per sample: 16
Bitrate: 876 kbps
Codec: FLAC
================================================================================

---------------------------------------------------------------------------------

Elliott Smith - Albums Collection (1994-2007) (8CDs)
From A Basement On The Hill (2004)
EAC | FLAC | Image (Cue&Log) ~ 480 Mb (incl 5%) | Mp3 (CBR320/Stereo) ~ 225 Mb (incl 5%)
Label: Anti- | # 86741-2 | Time: 00:57:53 | Scans included

"Almost exactly a year after his untimely death -- missing the anniversary by just two days -- Elliott Smith's final recordings were released as the From a Basement on the Hill album. Smith had been working on the album for a long time. His last album, Figure 8, had appeared in 2000, and when it came time to record its follow-up, he parted ways with both his major label, Dreamworks, and his longtime producer/engineer, Rob Schnapf, working through a number of different producers, including L.A. superproducer Jon Brion, before recording a number of sessions with David McConnell, which were supplemented with Smith's home recordings. At the time of his death, Smith was still tinkering with the album. There was no final track sequence and only a handful of final mixes; it was closer to completion than Jeff Buckley's Sketches for My Sweetheart the Drunk, which he intended to re-record, but it was still up to his family to finalize the record. For various reasons, the family chose to work with Schnapf and Joanna Bolme -- a former girlfriend of Smith and current member of Stephen Malkmus' Jicks -- instead of McConnell, who went on record with Kimberly Chun of The San Francisco Bay Area Guardian the week before the release of From a Basement to state that this album was not exactly what Smith intended it to be. According to McConnell, as well as Elliott Smith biographer Benjamin Nugent, Smith wanted the album to be rough and ragged, and McConnell told Chun that "obviously Elliott did not get his wishes," claiming that three of the songs on the album were considered finished by both him and Smith, but appear on the record in different mixes.

It's hard to dispute that Smith did not get to finalize the mixes, the track selection, or the sequencing -- he died, after all, with the album uncompleted -- but that's the nature of posthumous recordings: they're never quite what might have appeared had the artist lived. Critics, fans, and historians can have endless debates about whether this particular incarnation of the songs on From a Basement on the Hill would have been what would have been heard if Smith had finished the record, but that doesn't take away from the simple fact that the music here is strong enough to warrant a release, and that it offers a sense of resolution to his discography. While it's likely that From a Basement is cleaner than what Smith and McConnell intended, it is much sparer than Figure 8, and it feels at once more adventurous, confident, and warmer than its predecessor. Perhaps it's not "the next White Album," which is what McConnell claims it could have been, but it has a similarly freewheeling spirit, bouncing from sweet pop to fingerpicked acoustic guitars to fuzzy neo-psychedelic washes of sound. It's not far removed from Smith's previous work, but it feels like a step forward from the fussy Figure 8 and more intimate than XO. The most surprising twist is that despite the occasional lyrics that seem to telegraph his death (particularly on "A Fond Farewell"), it's not a crushingly heavy album. Like the best of his music, From a Basement on the Hill is comforting in its sadness; it's empathetic, not alienating. Given Smith's tragic fate, it also sadly seems like a summation of his work. All of his trademarks are here -- his soft, sad voice, a fixation on '60s pop, a warm sense of melancholy -- delivered in a strong set of songs that stands among his best. It may or may not be exactly what Elliott Smith intended these recording sessions to be, but as it stands, From a Basement on the Hill is a fond farewell to a singer/songwriter who many indie rockers of the '90s considered a friend.

Review by Stephen Thomas Erlewine, Allmusic.com"
Tracklist:

01. Coast To Coast (5:33)
02. Let's Get Lost (2:27)
03. Pretty (Ugly Before) (4:45)
04. Don't Go Down (4:34)
05. Strung Out Again (3:12)
06. A Fond Farewell (3:58)
07. King's Crossing (4:58)
08. Ostrich & Chirping (0:34)
09. Twilight (4:49)
10. A Passing Feeling (3:32)
11. The Last Hour (3:27)
12. Shooting Star (6:01)
13. Memory Lane (2:30)
14. Little One (3:14)
15. A Distorted Reality Is Now A Necessity To Be Free (4:42)


Exact Audio Copy V1.0 beta 3 from 29. August 2011

Отчёт EAC об извлечении, выполненном 28. августа 2013, 19:22

Elliott Smith / From a Basement on the Hill

Дисковод: ASUS DRW-2014L1T Adapter: 3 ID: 0

Режим чтения : Достоверность
Использование точного потока : Да
Отключение кэша аудио : Да
Использование указателей C2 : Нет

Коррекция смещения при чтении : 6
Способность читать области Lead-in и Lead-out : Нет
Заполнение пропущенных сэмплов тишиной : Да
Удаление блоков с тишиной в начале и конце : Нет
При вычислениях CRC использовались нулевые сэмплы : Да
Интерфейс : Встроенный Win32-интерфейс для Win NT/2000

Выходной формат : Пользовательский кодировщик
Выбранный битрейт : 128 kBit/s
Качество : Высокий
Добавление ID3-тега : Нет
Утилита сжатия : C:\Program Files\Exact Audio Copy\Flac\flac.exe
Дополнительные параметры : -V -8 -T "Date=%year%" -T "Genre=%genre%" %source%

TOC извлечённого CD

Трек | Старт | Длительность | Начальный сектор | Конечный сектор
---------------------------------------------------------------------
1 | 0:00.00 | 5:33.50 | 0 | 25024
2 | 5:33.50 | 2:27.18 | 25025 | 36067
3 | 8:00.68 | 4:45.55 | 36068 | 57497
4 | 12:46.48 | 4:34.08 | 57498 | 78055
5 | 17:20.56 | 3:12.48 | 78056 | 92503
6 | 20:33.29 | 3:58.01 | 92504 | 110354
7 | 24:31.30 | 4:57.73 | 110355 | 132702
8 | 29:29.28 | 0:33.72 | 132703 | 135249
9 | 30:03.25 | 4:29.27 | 135250 | 155451
10 | 34:32.52 | 3:32.03 | 155452 | 171354
11 | 38:04.55 | 3:27.55 | 171355 | 186934
12 | 41:32.35 | 6:01.50 | 186935 | 214059
13 | 47:34.10 | 2:30.68 | 214060 | 225377
14 | 50:05.03 | 3:14.69 | 225378 | 239996
15 | 53:19.72 | 4:32.56 | 239997 | 260452

Характеристики диапазона извлечения и сообщения об ошибках

Выбранный диапазон

Имя файла E:\Torrent Downloads\Music\Elliott Smith - Discography\Albums\2004 - From A Basement On The Hill\Elliott Smith - From a Basement on the Hill.wav

Пиковый уровень 96.6 %
Скорость извлечения 7.1 X
Качество диапазона 99.9 %
CRC теста 22BCF55A
CRC копии 22BCF55A
Копирование... OK

Ошибок не произошло


AccurateRip: сводка

Трек 1 : извлечено точно (доверие 29) [754D71BC] (AR v2)
Трек 2 : извлечено точно (доверие 29) [83A38B62] (AR v2)
Трек 3 : извлечено точно (доверие 29) [97DA8DB2] (AR v2)
Трек 4 : извлечено точно (доверие 29) [32F80EB1] (AR v2)
Трек 5 : извлечено точно (доверие 29) [36476C89] (AR v2)
Трек 6 : извлечено точно (доверие 28) [A51448AF] (AR v2)
Трек 7 : извлечено точно (доверие 28) [CC95F5EA] (AR v2)
Трек 8 : извлечено точно (доверие 29) [1BED412E] (AR v2)
Трек 9 : извлечено точно (доверие 29) [16C62BF1] (AR v2)
Трек 10 : извлечено точно (доверие 30) [694F18C6] (AR v2)
Трек 11 : извлечено точно (доверие 30) [7F6AE8CC] (AR v2)
Трек 12 : извлечено точно (доверие 29) [DE269CDB] (AR v2)
Трек 13 : извлечено точно (доверие 29) [1991CB41] (AR v2)
Трек 14 : извлечено точно (доверие 27) [35997324] (AR v2)
Трек 15 : извлечено точно (доверие 30) [65F6A99F] (AR v2)

Все треки извлечены точно

Конец отчёта

==== Контрольная сумма отчёта 826ABE511DB4B6B0BAA4AB1E085EC5AD92EEE67BA956DD84FF4DDBCE9A18F422 ====

foobar2000 1.2 / Dynamic Range Meter 1.1.1
log date: 2013-10-17 20:09:56

--------------------------------------------------------------------------------
Analyzed: Elliott Smith / From a Basement on the Hill
--------------------------------------------------------------------------------

DR Peak RMS Duration Track
--------------------------------------------------------------------------------
DR7 -0.30 dB -9.34 dB 5:34 01-Coast to Coast
DR10 -1.01 dB -14.19 dB 2:27 02-Let's Get Lost
DR7 -0.29 dB -9.82 dB 4:46 03-Pretty (Ugly Before)
DR7 -0.30 dB -8.24 dB 4:34 04-Don't Go Down
DR9 -0.30 dB -11.88 dB 3:13 05-Strung out Again
DR8 -0.30 dB -9.54 dB 3:58 06-A Fond Farewell
DR7 -0.30 dB -11.54 dB 4:58 07-King's Crossing
DR10 -7.58 dB -24.09 dB 0:34 08-Ostrich & Chirping
DR11 -0.53 dB -13.58 dB 4:29 09-Twilight
DR7 -0.29 dB -9.46 dB 3:32 10-A Passing Feeling
DR10 -2.07 dB -15.25 dB 3:28 11-The Last Hour
DR7 -0.29 dB -8.87 dB 6:02 12-Shooting Star
DR10 -0.66 dB -12.98 dB 2:31 13-Memory Lane
DR9 -0.30 dB -12.29 dB 3:15 14-Little One
DR8 -0.30 dB -11.38 dB 4:33 15-A Distorted Reality Is Now a Necessity to Be Free
--------------------------------------------------------------------------------

Number of tracks: 15
Official DR value: DR9

Samplerate: 44100 Hz
Channels: 2
Bits per sample: 16
Bitrate: 907 kbps
Codec: FLAC
================================================================================

---------------------------------------------------------------------------------

Elliott Smith - Albums Collection (1994-2007) (8CDs)
New Moon (2007) 2CD
EAC | FLAC | Image (Cue&Log) ~ 404 Mb (incl 5%) | Mp3 (CBR320/Stereo) ~ 176 Mb (incl 5%)
Label: Kill Rock Stars | # KRS 455 | Time: 01:13:30 | Scans ~ 126 Mb

"Before he died in 2003, Elliott Smith released five albums (plus the posthumous From a Basement on the Hill), but he had dozens and dozens of songs recorded, either alone on a four track or with friends in various studio settings, that had never seen the light of day. Kill Rock Stars -- the label for which he made arguably two of his best records, 1995's Elliott Smith and 1997's Either/Or -- with help from the late singer's archivist, Larry Crane, collected a handful of these pieces, added extensive and often personal liner notes, and made them available to the public under the title New Moon. Written and recorded between 1994 and 1997, the 24 tracks on New Moon showcase Smith at his most instinctive and natural, when he uses hardly more than his (double-tracked) voice and his guitar. Though some of the songs here, especially the earlier ones, can be quite simple, even raw at times, there's a sad, clean sweetness that comes through despite the occasional bit of tape hiss, of tinny chords. In fact, much was done by the album's producers to maintain the integrity of Smith's original tracks, remixing them only when absolutely necessary (the only song that took vocal and instrumental elements from two different sessions is "New Disaster," and is clearly marked as such). This means that New Moon embodies an unadulterated Smith, singing and playing songs how he wanted to, carefully layering his voice and adding the occasional harmony, the second guitar, the subtle drum tap -- and with little of the full-band sound he moved into after he left KRS and went to a major label -- but it doesn't mean that the pieces sound incomplete or unprofessional; almost all them could've been included on one of Smith's albums, and in fact many of them were near to making the cut. "Looking Over My Shoulder" has a great hook, catchy in that monotonously melodic kind of way Smith knew how to do best. "You're always coming over with all of your friends and all their opinions I don't want to know," he sings, a slight anger in his voice, while "All Cleaned Out" reveals a kind of pity for his subject. There's a depth of emotion in New Moon, more than pure sadness, seen in his cover of Big Star's "Thirteen," recorded live in DJ Rob Jones's basement and played back later on air, the near indignation of "Georgia, Georgia," the fast picking on "Almost Over." Even the rendition of "Miss Misery" included here, the song that propelled him into the spotlight, has a lightness that doesn't exist in the final product. Instead of that hauntingly sad refrain, that last plea, "Do you miss me, miss misery like you say you do?" Smith hints at a different ending. "'Cause it's all right, some enchanted night I'll be with you," he sings. There's distant hope for redemption, for resolution here, something that was not present in the later version. In fact, that's the overall feeling that New Moon gives, a sense of opportunity, of possibility, of life within the bleak reality. The album portrays a more stable Smith and promises something brilliant to come, full of words and chords that will touch thousands, alluding to the future and the past, but mostly, in its own quiet way, screaming to show off the immense talents of one man and his songs.

Review by Marisa Brown, Allmusic.com"
Tracklist:

CD1:

01. Angel In The Snow (2:38)
02. Talking To Mary (3:42)
03. High Times (3:12)
04. New Monkey (3:13)
05. Looking Over My Shoulder (3:40)
06. Going Nowhere (3:51)
07. Riot Coming (3:44)
08. All Cleaned Out (2:57)
09. First Timer (2:42)
10. Go By (3:47)
11. Miss Misery (Early Version) (2:56)
12. Thirteen (2:44)

CD2:

01. Georgia, Georgia (1:47)
02. Whatever (Folk Song in C) (2:18)
03. Big Decision (2:01)
04. Placeholder (2:30)
05. New Disaster (4:10)
06. Seen How Things Are Hard (3:21)
07. Fear City (3:30)
08. Either / Or (2:27)
09. Pretty Mary K (Other Version) (3:24)
10. Almost Over (2:12)
11. See You Later (2:54)
12. Half Right (3:50)


Exact Audio Copy V1.0 beta 3 from 29. August 2011

Отчёт EAC об извлечении, выполненном 28. августа 2013, 19:38

Elliott Smith / New Moon (Disc 1)

Дисковод: ASUS DRW-2014L1T Adapter: 3 ID: 0

Режим чтения : Достоверность
Использование точного потока : Да
Отключение кэша аудио : Да
Использование указателей C2 : Нет

Коррекция смещения при чтении : 6
Способность читать области Lead-in и Lead-out : Нет
Заполнение пропущенных сэмплов тишиной : Да
Удаление блоков с тишиной в начале и конце : Нет
При вычислениях CRC использовались нулевые сэмплы : Да
Интерфейс : Встроенный Win32-интерфейс для Win NT/2000

Выходной формат : Пользовательский кодировщик
Выбранный битрейт : 128 kBit/s
Качество : Высокий
Добавление ID3-тега : Нет
Утилита сжатия : C:\Program Files\Exact Audio Copy\Flac\flac.exe
Дополнительные параметры : -V -8 -T "Date=%year%" -T "Genre=%genre%" %source%

TOC извлечённого CD

Трек | Старт | Длительность | Начальный сектор | Конечный сектор
---------------------------------------------------------------------
1 | 0:00.00 | 2:37.27 | 0 | 11801
2 | 2:37.27 | 3:42.15 | 11802 | 28466
3 | 6:19.42 | 3:11.58 | 28467 | 42849
4 | 9:31.25 | 3:12.40 | 42850 | 57289
5 | 12:43.65 | 3:39.50 | 57290 | 73764
6 | 16:23.40 | 3:51.42 | 73765 | 91131
7 | 20:15.07 | 3:43.63 | 91132 | 107919
8 | 23:58.70 | 2:57.37 | 107920 | 121231
9 | 26:56.32 | 2:42.03 | 121232 | 133384
10 | 29:38.35 | 3:46.42 | 133385 | 150376
11 | 33:25.02 | 2:56.20 | 150377 | 163596
12 | 36:21.22 | 2:43.20 | 163597 | 175841

Характеристики диапазона извлечения и сообщения об ошибках

Выбранный диапазон

Имя файла E:\Torrent Downloads\Music\Elliott Smith - Discography\Compilations\2007 - New Moon\Disc 1\Elliott Smith - New Moon (Disc 1).wav

Пиковый уровень 98.6 %
Скорость извлечения 6.4 X
Качество диапазона 99.9 %
CRC теста 54AEB2CA
CRC копии 54AEB2CA
Копирование... OK

Ошибок не произошло<
Direct Download


Tags: Elliott, Albums, Collection

Elliott Smith - Albums Collection (1994-2007) (8CDs) Fast Download via Rapidshare Hotfile Fileserve Filesonic Megaupload, Elliott Smith - Albums Collection (1994-2007) (8CDs) Torrents and Emule Download or anything related.
Dear visitor, you went to website as unregistered user.
We encourage you to Register or Login to website under your name.
Information
Members of Guest cannot leave comments.