Mick Abrahams (1971)

Category: Music | Comment: 0

Download Now

Mick Abrahams (1971)

Mick Abrahams - Mick Abrahams (1971)
Rock | 1cd | EAC Rip | Flac + Cue + Log | covers
BGO CD95 | rel: 1992 | 290Mb

Mick Abrahams' first formal solo album is more focused on blues and blues-rock, and far less on jazz, than his work with Blodwyn Pig, and is a better record for it. For first-time listeners, much of this record will recall Clapton's first post-Cream solo LP, Eric Clapton, in its generally laid-back sound and the presence of a fairly strong country blues influence. Abrahams' vocals here are a little more mournful than soulful -- his playing (especially when he picks up an acoustic guitar) is up to his usual standard, however, and Ritchie Dharma's drumming is dizzying in its speed and complexity.
Much of the material is substandard, however, and one number in particular, "Seasons," is especially annoying -- evidently Abrahams couldn't decide whether he wanted to invade Yes territory (especially Steve Howe's solo noodlings) or the Allman Brothers' turf on this 15-minute extended track (which, as a piece of psychedelia, is several years late), which ultimately goes nowhere. "Winds of Change," an unassuming four-minute acoustic blues, is far more to the point. ~Allmusic

Track listing
1. Greyhound Bus (4:50)
2. Awake (8:49)
3. Winds Of Change (4:50)
4. Why Do You Do Me This Way (3:31)
5. Big Queen (4:27)
6. Not To Rearrange (3:25)
6. Seasons (15:02)

- Mick Abrahams - guitar, 7- string slide guitar, mandolin, pedal steel guitar & vocals
- Bob Sargeant - organ, piano, second guitar, vocals
- Walt Monoghan - bass, vocals
- Ritchie Dharma - drums, congas, percussion

EAC extraction logfile from 30. October 2006, 17:30 for CD
Mick Abrahams / Mick Abrahams

Used drive : _NEC CD-RW NR-9100A Adapter: 1 ID: 0
Read mode : Secure with NO C2, accurate stream, disable cache
Read offset correction : 685
Overread into Lead-In and Lead-Out : No

Used output format : Internal WAV Routines
44.100 Hz; 16 Bit; Stereo

Other options :
Fill up missing offset samples with silence : Yes
Delete leading and trailing silent blocks : No
Installed external ASPI interface

Track 1
Filename C:\Program Files\Exact Audio Copy\01 - Greyhound bus.wav

Pre-gap length 0:00:02.33

Peak level 98.1 %
Track quality 100.0 %
Test CRC 43385CAD
Copy CRC 43385CAD
Copy OK

Track 2
Filename C:\Program Files\Exact Audio Copy\02 - Awake.wav

Pre-gap length 0:00:02.00

Peak level 96.0 %
Track quality 100.0 %
Test CRC 0570CF0B
Copy CRC 0570CF0B
Copy OK

Track 3
Filename C:\Program Files\Exact Audio Copy\03 - Winds of change.wav

Pre-gap length 0:00:02.00

Peak level 90.1 %
Track quality 100.0 %
Test CRC B9D9DE08
Copy CRC B9D9DE08
Copy OK

Track 4
Filename C:\Program Files\Exact Audio Copy\04 - Why do you do me this way.wav

Pre-gap length 0:00:02.00

Peak level 95.3 %
Track quality 100.0 %
Test CRC FCF36388
Copy CRC FCF36388
Copy OK

Track 5
Filename C:\Program Files\Exact Audio Copy\05 - Big queen.wav

Pre-gap length 0:00:02.00

Peak level 100.0 %
Track quality 100.0 %
Test CRC 5462E088
Copy CRC 5462E088
Copy OK

Track 6
Filename C:\Program Files\Exact Audio Copy\06 - Not to rearrange.wav

Pre-gap length 0:00:02.00

Peak level 97.6 %
Track quality 100.0 %
Test CRC 3B599E13
Copy CRC 3B599E13
Copy OK

Track 7
Filename C:\Program Files\Exact Audio Copy\07 - Seasons.wav

Pre-gap length 0:00:02.00

Peak level 93.3 %
Track quality 99.9 %
Test CRC 46B25B54
Copy CRC 46B25B54
Copy OK

No errors occured

End of status report

[CUETools log; Date: 2013.10.22. 14:30:04; Version: 2.1.4]
Pregap length 00:00:33.
[CTDB TOCID: 35eSvF_KYgk0TSj9D.XacoNJook-] disk not present in database.
[AccurateRip ID: 000b15d8-00428814-4a0a9707] disk not present in database.

Track Peak [ CRC32 ] [W/O NULL] [ LOG ]
-- 100,0 [38682C8B] [87CC234B]
01 98,1 [43385CAD] [62130DD5] CRC32
02 96,0 [0570CF0B] [F4B59A7A] CRC32
03 90,1 [B9D9DE08] [8F5EAFF5] CRC32
04 95,3 [FCF36388] [E2E4AEE9] CRC32
05 100,0 [5462E088] [EC90D20E] CRC32
06 97,6 [3B599E13] [EF390CE3] CRC32
07 93,3 [46B25B54] [82F66E50] CRC32

original uploader unknown, found in my archive

password: asd

Direct Download

Tags: Abrahams

Mick Abrahams (1971) Fast Download via Rapidshare Hotfile Fileserve Filesonic Megaupload, Mick Abrahams (1971) Torrents and Emule Download or anything related.
Dear visitor, you went to website as unregistered user.
We encourage you to Register or Login to website under your name.
Members of Guest cannot leave comments.