VA - Coco Beach Ibiza (Mixed And Compiled By Paul Lomax & Tom Pool) Vol.02 (2013)

Category: Music | Comment: 0

Download Now

VA - Coco Beach Ibiza (Mixed And Compiled By Paul Lomax & Tom Pool) Vol.02 (2013)

VA - Coco Beach Ibiza (Mixed And Compiled By Paul Lomax & Tom Pool) Vol.2 [2013]
EAC Rip | 2CDs | FLAC Tracks + Cue + Log => 859 MB | MP3 CBR @320 kbps => 318 MB | Full scans => 145 MB
Label: Clubstar Records | Catalog.#: CLS002952 | Genre: Chill House, Deep House, Lounge

Finest balearic chill & house grooves from Ibiza's beach restaurant N? 1


CD1 - Mixed By Paul Lomax

01. Marc Vexar - Changes - 7:56
02. Novika - Miss Mood ( Satin Jackets Remix) - 7:13
03. Crazy P - Eruption (Bonar Bradberry Remix) - 5:25
04. Mark Bale Feat. Stella O'Neil - You (Funky Dice & Dezibl Remix Radio Edit) - 6:54
05. Kruse & Nuernberg Feat. Stee Downes - For My Life (Original Mix) - 4:13
06. Bruno From Ibiza Feat. Simonne Cooper - This Is Your Life (Original Mix) - 4:48
07. David K Feat. Marie Chain - Open Eyes (Sonik Remix) - 6:20
08. Luca Citoli - If I Can't - 6:57
09. Luciano - Rise Of Angel (Andrea Oliva Remix) - 7:46
10. Alexandros Djkevingr - Kingdom Of Parsley (HP Hoeger & Paul Lomax Balearic Beach Mix) - 6:28
11. Fred Falke - F909 PM At The Beach - 6:16

Exact Audio Copy V1.0 beta 1 from 15. November 2010

EAC extraction logfile from 14. October 2013, 10:28

Various / Coco Beach Vol. 2 - CD1 - By Paul Lomax

Used drive : PLEXTOR DVDR PX-L890SA Adapter: 1 ID: 4

Read mode : Secure
Utilize accurate stream : Yes
Defeat audio cache : Yes
Make use of C2 pointers : No

Read offset correction : 6
Overread into Lead-In and Lead-Out : No
Fill up missing offset samples with silence : Yes
Delete leading and trailing silent blocks : No
Null samples used in CRC calculations : Yes
Used interface : Native Win32 interface for Win NT & 2000
Gap handling : Appended to previous track

Used output format : User Defined Encoder
Selected bitrate : 896 kBit/s
Quality : High
Add ID3 tag : No
Command line compressor : C:\Program Files (x86)\Exact Audio Copy\Flac\flac.exe
Additional command line options : -8 -V -T "ARTIST=%a" -T "TITLE=%t" -T "ALBUM=%g" -T "DATE=%y" -T "TRACKNUMBER=%n" -T "GENRE=%m" -T "COMMENT=ripped by Oleandris" %s

TOC of the extracted CD

Track | Start | Length | Start sector | End sector
---------------------------------------------------------
1 | 0:00.00 | 7:55.69 | 0 | 35693
2 | 7:55.69 | 7:13.18 | 35694 | 68186
3 | 15:09.12 | 5:25.03 | 68187 | 92564
4 | 20:34.15 | 6:53.49 | 92565 | 123588
5 | 27:27.64 | 4:12.49 | 123589 | 142537
6 | 31:40.38 | 4:47.70 | 142538 | 164132
7 | 36:28.33 | 6:19.73 | 164133 | 192630
8 | 42:48.31 | 6:56.68 | 192631 | 223898
9 | 49:45.24 | 7:46.31 | 223899 | 258879
10 | 57:31.55 | 6:28.21 | 258880 | 288000
11 | 64:00.01 | 6:16.01 | 288001 | 316201

Track 1

Filename F:\\ Coco Beach Ibiza (Mixed And Compiled By Paul Lomax & Tom Pool) vol.2 2CD (2013\CD1 - Mixed By Paul Lomax\01. Marc Vexar - Changes.wav

Pre-gap length 0:00:02.00

Peak level 83.2 %
Extraction speed 4.3 X
Track quality 100.0 %
Test CRC E6F59987
Copy CRC E6F59987
Accurately ripped (confidence 1) [3CA09685]
Copy OK

Track 2

Filename F:\\ Coco Beach Ibiza (Mixed And Compiled By Paul Lomax & Tom Pool) vol.2 2CD (2013\CD1 - Mixed By Paul Lomax\02. Novika - Miss Mood ( Satin Jackets Remix).wav

Peak level 83.2 %
Extraction speed 4.9 X
Track quality 100.0 %
Test CRC 77840650
Copy CRC 77840650
Accurately ripped (confidence 1) [69F8EEAE]
Copy OK

Track 3

Filename F:\\ Coco Beach Ibiza (Mixed And Compiled By Paul Lomax & Tom Pool) vol.2 2CD (2013\CD1 - Mixed By Paul Lomax\03. Crazy P - Eruption (Bonar Bradberry Remix).wav

Peak level 83.2 %
Extraction speed 5.3 X
Track quality 100.0 %
Test CRC A43816E9
Copy CRC A43816E9
Accurately ripped (confidence 1) [4E0503C5]
Copy OK

Track 4

Filename F:\\ Coco Beach Ibiza (Mixed And Compiled By Paul Lomax & Tom Pool) vol.2 2CD (2013\CD1 - Mixed By Paul Lomax\04. Mark Bale Feat. Stella O'Neil - You (Funky Dice & Dezibl Remix Radio Edit).wav

Peak level 83.2 %
Extraction speed 5.9 X
Track quality 100.0 %
Test CRC 82EA5A5B
Copy CRC 82EA5A5B
Accurately ripped (confidence 1) [05A1E1A4]
Copy OK

Track 5

Filename F:\\ Coco Beach Ibiza (Mixed And Compiled By Paul Lomax & Tom Pool) vol.2 2CD (2013\CD1 - Mixed By Paul Lomax\05. Kruse & Nuernberg Feat. Stee Downes - For My Life (Original Mix).wav

Peak level 83.2 %
Extraction speed 5.8 X
Track quality 100.0 %
Test CRC 8A5F41FC
Copy CRC 8A5F41FC
Accurately ripped (confidence 1) [730D75FE]
Copy OK

Track 6

Filename F:\\ Coco Beach Ibiza (Mixed And Compiled By Paul Lomax & Tom Pool) vol.2 2CD (2013\CD1 - Mixed By Paul Lomax\06. Bruno From Ibiza Feat. Simonne Cooper - This Is Your Life (Original Mix).wav

Peak level 83.2 %
Extraction speed 6.3 X
Track quality 100.0 %
Test CRC 63A0D0F9
Copy CRC 63A0D0F9
Accurately ripped (confidence 1) [82ABE996]
Copy OK

Track 7

Filename F:\\ Coco Beach Ibiza (Mixed And Compiled By Paul Lomax & Tom Pool) vol.2 2CD (2013\CD1 - Mixed By Paul Lomax\07. David K Feat. Marie Chain - Open Eyes (Sonik Remix).wav

Peak level 83.2 %
Extraction speed 6.8 X
Track quality 100.0 %
Test CRC BC2ACFB7
Copy CRC BC2ACFB7
Accurately ripped (confidence 1) [0A208BFC]
Copy OK

Track 8

Filename F:\\ Coco Beach Ibiza (Mixed And Compiled By Paul Lomax & Tom Pool) vol.2 2CD (2013\CD1 - Mixed By Paul Lomax\08. Luca Citoli - If I Can't.wav

Peak level 83.2 %
Extraction speed 7.2 X
Track quality 100.0 %
Test CRC 39C2A0AB
Copy CRC 39C2A0AB
Accurately ripped (confidence 1) [DF262209]
Copy OK

Track 9

Filename F:\\ Coco Beach Ibiza (Mixed And Compiled By Paul Lomax & Tom Pool) vol.2 2CD (2013\CD1 - Mixed By Paul Lomax\09. Luciano - Rise Of Angel (Andrea Oliva Remix).wav

Peak level 83.2 %
Extraction speed 7.8 X
Track quality 100.0 %
Test CRC 11F5FBD6
Copy CRC 11F5FBD6
Accurately ripped (confidence 1) [A01F222D]
Copy OK

Track 10

Filename F:\\ Coco Beach Ibiza (Mixed And Compiled By Paul Lomax & Tom Pool) vol.2 2CD (2013\CD1 - Mixed By Paul Lomax\10. Alexandros Djkevingr - Kingdom Of Parsley (HP Hoeger & Paul Lomax Balearic Beach Mix).wav

Peak level 83.2 %
Extraction speed 7.9 X
Track quality 100.0 %
Test CRC D6F5FB13
Copy CRC D6F5FB13
Accurately ripped (confidence 1) [3FBE15D7]
Copy OK

Track 11

Filename F:\\ Coco Beach Ibiza (Mixed And Compiled By Paul Lomax & Tom Pool) vol.2 2CD (2013\CD1 - Mixed By Paul Lomax\11. Fred Falke - F909 PM At The Beach.wav

Peak level 81.4 %
Extraction speed 8.2 X
Track quality 100.0 %
Test CRC F03E2C41
Copy CRC F03E2C41
Accurately ripped (confidence 1) [12983EE5]
Copy OK

All tracks accurately ripped

No errors occurred

End of status report

==== Log checksum 8B538A968BC7DC3B9563BBC3E0DA8C9A2AC9E67BBB47DFE221F2AE6F1B30ADA3 ====


[CUETools log; Date: 10/18/2013 9:47:33 PM; Version: 2.1.4]
[AccurateRip ID: 001d168f-00f9df88-9f10780b] found.
Track [ CRC | V2 ] Status
01 [3ca09685|2cd204df] (0+1/1) Accurately ripped
02 [69f8eeae|62523e28] (0+1/1) Accurately ripped
03 [4e0503c5|44556254] (0+1/1) Accurately ripped
04 [05a1e1a4|d013c361] (0+1/1) Accurately ripped
05 [730d75fe|fd4e9d65] (0+1/1) Accurately ripped
06 [82abe996|dc592844] (0+1/1) Accurately ripped
07 [0a208bfc|105bfeda] (0+1/1) Accurately ripped
08 [df262209|367c55fa] (0+1/1) Accurately ripped
09 [a01f222d|b5fe3422] (0+1/1) Accurately ripped
10 [3fbe15d7|b0d57af2] (0+1/1) Accurately ripped
11 [12983ee5|41cfdeb7] (0+1/1) Accurately ripped

Track Peak [ CRC32 ] [W/O NULL] [ LOG ]
-- 83.2 [ACC71ECC] [279D1A9B]
01 83.2 [E6F59987] [8A2DC718] CRC32
02 83.2 [77840650] [2342F2AC] CRC32
03 83.2 [A43816E9] [320F83BE] CRC32
04 83.2 [82EA5A5B] [73E70D88] CRC32
05 83.2 [8A5F41FC] [ABD44B8D] CRC32
06 83.2 [63A0D0F9] [97E22007] CRC32
07 83.2 [BC2ACFB7] [9920C87F] CRC32
08 83.2 [39C2A0AB] [6D83BCFA] CRC32
09 83.2 [11F5FBD6] [757CAFF8] CRC32
10 83.2 [D6F5FB13] [6B1EFB99] CRC32
11 81.4 [F03E2C41] [29C1BF82] CRC32


CD2 - Mixed By Tom Pool

01. Fcl - It's You (San Soda's Panorama Bar Acca Version) - 5:26
02. Dan Caster & Toby Montana - Babylon Beach - 4:34
03. Nick Curly - Piano In The Dark (Yoruba Soul Mix) - 7:08
04. Lefa Sammy Mkhabela - Aladura (Andy's Nteeze Remix) - 5:57
05. Dan Caster - Marlene ( Original Version) - 6:25
06. Edu Imbernon & Los Suruba Feat. Daniel Wilde - Leopard (Sacha Braemer & Dan Caster Remix) - 4:45
07. Nicone & Sascha Braemer Feat. Narra - Raoui (Original Version) - 5:49
08. Riva Starr Feat. RSSLL - Absence (Adam Port Mix) - 6:36
09. Super Flu - Super Flu 3
10. Douglas Greed - This Time Feat. Kuss ( Original Version) - 6:36
11. Raone Franco & Salla Ft. Luckwhere - Secrets (Kyrill & Redford Remix) - 4:46

Exact Audio Copy V1.0 beta 1 from 15. November 2010

EAC extraction logfile from 14. October 2013, 10:27

Various / Coco Beach Vol. 2 - CD2 - By Tom Pool

Used drive : PLEXTOR DVDR PX-891SA Adapter: 1 ID: 5

Read mode : Secure
Utilize accurate stream : Yes
Defeat audio cache : Yes
Make use of C2 pointers : No

Read offset correction : 6
Overread into Lead-In and Lead-Out : No
Fill up missing offset samples with silence : Yes
Delete leading and trailing silent blocks : No
Null samples used in CRC calculations : Yes
Used interface : Native Win32 interface for Win NT & 2000
Gap handling : Appended to previous track

Used output format : User Defined Encoder
Selected bitrate : 896 kBit/s
Quality : High
Add ID3 tag : No
Command line compressor : C:\Program Files (x86)\Exact Audio Copy\Flac\flac.exe
Additional command line options : -8 -V -T "ARTIST=%a" -T "TITLE=%t" -T "ALBUM=%g" -T "DATE=%y" -T "TRACKNUMBER=%n" -T "GENRE=%m" -T "COMMENT=ripped by Oleandris" %s

TOC of the extracted CD

Track | Start | Length | Start sector | End sector
---------------------------------------------------------
1 | 0:00.00 | 5:25.47 | 0 | 24421
2 | 5:25.47 | 4:33.51 | 24422 | 44947
3 | 9:59.23 | 7:08.33 | 44948 | 77080
4 | 17:07.56 | 5:57.01 | 77081 | 103856
5 | 23:04.57 | 6:24.57 | 103857 | 132713
6 | 29:29.39 | 4:45.08 | 132714 | 154096
7 | 34:14.47 | 5:49.04 | 154097 | 180275
8 | 40:03.51 | 6:36.14 | 180276 | 209989
9 | 46:39.65 | 6:36.51 | 209990 | 239740
10 | 53:16.41 | 6:35.45 | 239741 | 269410
11 | 59:52.11 | 4:46.20 | 269411 | 290880

Track 1

Filename F:\\ Coco Beach Ibiza (Mixed And Compiled By Paul Lomax & Tom Pool) vol.2 2CD (2013\CD2 - Mixed By Tom Pool\01. Fcl - It's You (San Soda's Panorama Bar Acca Version).wav

Pre-gap length 0:00:02.00

Peak level 96.6 %
Extraction speed 5.8 X
Track quality 100.0 %
Test CRC A5E57BAE
Copy CRC A5E57BAE
Accurately ripped (confidence 1) [2BA393E5]
Copy OK

Track 2

Filename F:\\ Coco Beach Ibiza (Mixed And Compiled By Paul Lomax & Tom Pool) vol.2 2CD (2013\CD2 - Mixed By Tom Pool\02. Dan Caster & Toby Montana - Babylon Beach.wav

Peak level 96.6 %
Extraction speed 6.4 X
Track quality 100.0 %
Test CRC 851B5897
Copy CRC 851B5897
Accurately ripped (confidence 1) [814FB950]
Copy OK

Track 3

Filename F:\\ Coco Beach Ibiza (Mixed And Compiled By Paul Lomax & Tom Pool) vol.2 2CD (2013\CD2 - Mixed By Tom Pool\03. Nick Curly - Piano In The Dark (Yoruba Soul Mix).wav

Peak level 96.6 %
Extraction speed 7.5 X
Track quality 100.0 %
Test CRC B1F8536E
Copy CRC B1F8536E
Accurately ripped (confidence 1) [51F97A6A]
Copy OK

Track 4

Filename F:\\ Coco Beach Ibiza (Mixed And Compiled By Paul Lomax & Tom Pool) vol.2 2CD (2013\CD2 - Mixed By Tom Pool\04. Lefa Sammy Mkhabela - Aladura (Andy's Nteeze Remix).wav

Peak level 96.6 %
Extraction speed 8.1 X
Track quality 100.0 %
Test CRC F8B2C0B6
Copy CRC F8B2C0B6
Accurately ripped (confidence 1) [F2DBE554]
Copy OK

Track 5

Filename F:\\ Coco Beach Ibiza (Mixed And Compiled By Paul Lomax & Tom Pool) vol.2 2CD (2013\CD2 - Mixed By Tom Pool\05. Dan Caster - Marlene ( Original Version).wav

Peak level 96.6 %
Extraction speed 8.8 X
Track quality 100.0 %
Test CRC 7C1EB156
Copy CRC 7C1EB156
Accurately ripped (confidence 1) [AC3DC426]
Copy OK

Track 6

Filename F:\\ Coco Beach Ibiza (Mixed And Compiled By Paul Lomax & Tom Pool) vol.2 2CD (2013\CD2 - Mixed By Tom Pool\06. Edu Imbernon & Los Suruba Feat. Daniel Wilde - Leopard (Sacha Braemer & Dan Caster Remix).wav

Peak level 96.6 %
Extraction speed 9.1 X
Track quality 100.0 %
Test CRC 2C306144
Copy CRC 2C306144
Accurately ripped (confidence 1) [FB872157]
Copy OK

Track 7

Filename F:\\ Coco Beach Ibiza (Mixed And Compiled By Paul Lomax & Tom Pool) vol.2 2CD (2013\CD2 - Mixed By Tom Pool\07. Nicon & Sascha Braemer Feat. Narra - Raoui (Original Version).wav

Peak level 96.6 %
Extraction speed 9.7 X
Track quality 100.0 %
Test CRC DA6C30F6
Copy CRC DA6C30F6
Accurately ripped (confidence 1) [C1729F00]
Copy OK

Track 8

Filename F:\\ Coco Beach Ibiza (Mixed And Compiled By Paul Lomax & Tom Pool) vol.2 2CD (2013\CD2 - Mixed By Tom Pool\08. Riva Starr Feat. RSSLL - Absence (Adam Port Mix).wav

Peak level 96.6 %
Extraction speed 10.4 X
Track quality 100.0 %
Test CRC 9343EFC9
Copy CRC 9343EFC9
Accurately ripped (confidence 1) [DD36070A]
Copy OK

Track 9

Filename F:\\ Coco Beach Ibiza (Mixed And Compiled By Paul Lomax & Tom Pool) vol.2 2CD (2013\CD2 - Mixed By Tom Pool\09. Super Flu - Super Flu 3 [ Isaac (Original Version).wav

Peak level 96.6 %
Extraction speed 11.1 X
Track quality 100.0 %
Test CRC 0942B832
Copy CRC 0942B832
Accurately ripped (confidence 1) [499ECE40]
Copy OK

Track 10

Filename F:\\ Coco Beach Ibiza (Mixed And Compiled By Paul Lomax & Tom Pool) vol.2 2CD (2013\CD2 - Mixed By Tom Pool\10. Douglas Greed - This Time Feat. Kuss ( Original Version).wav

Peak level 96.6 %
Extraction speed 11.4 X
Track quality 100.0 %
Test CRC D302E3A1
Copy CRC D302E3A1
Accurately ripped (confidence 1) [51DA75D3]
Copy OK

Track 11

Filename F:\\ Coco Beach Ibiza (Mixed And Compiled By Paul Lomax & Tom Pool) vol.2 2CD (2013\CD2 - Mixed By Tom Pool\11. Raone Franco & Salla Ft. Luckwhere - Secrets (Kyrill & Redford Remix).wav

Peak level 96.6 %
Extraction speed 9.5 X
Track quality 99.9 %
Test CRC 54639A98
Copy CRC 54639A98
Accurately ripped (confidence 1) [F80F0C4D]
Copy OK

All tracks accurately ripped

No errors occurred

End of status report

==== Log checksum F8C08A0A7C5967FA36B5BB41CAB0DD71431B32FA6063B8CBEC13E8DFB7462157 ====


[CUETools log; Date: 10/18/2013 9:51:52 PM; Version: 2.1.4]
[AccurateRip ID: 001a5bba-00e5f2ba-900f260b] found.
Track [ CRC | V2 ] Status
01 [2ba393e5|09a9a425] (0+1/1) Accurately ripped
02 [814fb950|b1d97993] (0+1/1) Accurately ripped
03 [51f97a6a|a75ea493] (0+1/1) Accurately ripped
04 [f2dbe554|d4b9c99b] (0+1/1) Accurately ripped
05 [ac3dc426|eae8a730] (0+1/1) Accurately ripped
06 [fb872157|b8dca02f] (0+1/1) Accurately ripped
07 [c1729f00|603b6e3e] (0+1/1) Accurately ripped
08 [dd36070a|2334df55] (0+1/1) Accurately ripped
09 [499ece40|dcccb27b] (0+1/1) Accurately ripped
10 [51da75d3|ac90b5c6] (0+1/1) Accurately ripped
11 [f80f0c4d|dab2600c] (0+1/1) Accurately ripped

Track Peak [ CRC32 ] [W/O NULL] [ LOG ]
-- 96.6 [EBC8D962] [AE9A3E0D]
01 96.6 [A5E57BAE] [4D1E745A] CRC32
02 96.6 [851B5897] [57498A17] CRC32
03 96.6 [B1F8536E] [D323FB0A] CRC32
04 96.6 [F8B2C0B6] [9D780557] CRC32
05 96.6 [7C1EB156] [792561C0] CRC32
06 96.6 [2C306144] [0D159E55] CRC32
07 96.6 [DA6C30F6] [2E46D443] CRC32
08 96.6 [9343EFC9] [8C378A3C] CRC32
09 96.6 [0942B832] [E23A685F] CRC32
10 96.6 [D302E3A1] [8CE4941D] CRC32
11 96.6 [54639A98] [71200110] CRC32


Released Date: 2013
Format: 2 x CD, Compilation
Length: 1:10:16 (CD1) | 1:04:38 (CD2)

VA - Coco Beach Ibiza (Mixed And Compiled By Paul Lomax & Tom Pool) Vol.02 (2013)
VA - Coco Beach Ibiza (Mixed And Compiled By Paul Lomax & Tom Pool) Vol.02 (2013)VA - Coco Beach Ibiza (Mixed And Compiled By Paul Lomax & Tom Pool) Vol.02 (2013)
Ripped by Oleandris

If you have any questions about this publication, please send me a private message.

password: www.AvaxHome.ru




Direct Download


Tags: Compiled

VA - Coco Beach Ibiza (Mixed And Compiled By Paul Lomax & Tom Pool) Vol.02 (2013) Fast Download via Rapidshare Hotfile Fileserve Filesonic Megaupload, VA - Coco Beach Ibiza (Mixed And Compiled By Paul Lomax & Tom Pool) Vol.02 (2013) Torrents and Emule Download or anything related.
Dear visitor, you went to website as unregistered user.
We encourage you to Register or Login to website under your name.
Information
Members of Guest cannot leave comments.