VA - Elektro Codes. One (1997)

Category: Music | Comment: 0

Download Now

VA - Elektro Codes. One (1997)

V.A. - Elektro Codes. One (1997)
EAC Rip | FLAC (image+.cue+log) - 407 MB | MP3 CBR 320 kbps (LAME 3.93) - 171 MB | Covers - 71 MB
Genre: Electro, Ambient | RAR 3% Rec. | Label: Elektrolux (e10110cd)

"The Elektro Codes.One Compilation is the second release in a series put out by Elektrolux. A well compiled range of futuristic slammin' Elektro-flavours introduces our label's quality output and sound philosophy. Artists such as Insect Jazz, S.O.A.B., Babel, Z-Plane, FMF, Fortunato & Montresor, The Saafi Bros. remixed by Jammin Unit and last but not least Iceland's Silk are all introducing the listener to the fine sound science of Elektrolux."
Tracklist:
01. Insect Jazz - Insect Funk
02. Flow.Machine - Funky Flow
03. S.O.A.B. - Electric Shake
04. Full Moon Fashions - Electric Ghana
05. Z-Plane - Arc Of A Diver
06. Silk - Symplicity
07. Babel - Shaman
08. Fortunato & Montresor - Imagine (Imagination 2)
09. Saafi Brothers - Internal.Code.Error. (Jammin' Unit Remix)

Total time: 01:12:38

Exact Audio Copy V0.99 prebeta 5 from 4. May 2009

EAC extraction logfile from 30. October 2009, 20:39

Various / Elektro Codes.One

Used drive : Optiarc DVD RW AD-7220A Adapter: 1 ID: 2

Read mode : Secure
Utilize accurate stream : Yes
Defeat audio cache : Yes
Make use of C2 pointers : No

Read offset correction : 6
Overread into Lead-In and Lead-Out : No
Fill up missing offset samples with silence : Yes
Delete leading and trailing silent blocks : No
Null samples used in CRC calculations : Yes
Used interface : Installed external ASPI interface

Used output format : User Defined Encoder
Selected bitrate : 1024 kBit/s
Quality : High
Add ID3 tag : No
Command line compressor : C:\Program Files\Exact Audio Copy\Flac\flac.exe
Additional command line options : -8 -V -T "ARTIST=%a" -T "TITLE=%t" -T "ALBUM=%g" -T "DATE=%y" -T "TRACKNUMBER=%n" -T "GENRE=%m" -T "COMMENT=%e" %s -o %d

TOC of the extracted CD

Track | Start | Length | Start sector | End sector
---------------------------------------------------------
1 | 0:00.00 | 8:08.07 | 0 | 36606
2 | 8:08.07 | 6:56.27 | 36607 | 67833
3 | 15:04.34 | 6:33.45 | 67834 | 97353
4 | 21:38.04 | 10:00.50 | 97354 | 142403
5 | 31:38.54 | 7:56.20 | 142404 | 178123
6 | 39:34.74 | 10:24.61 | 178124 | 224984
7 | 49:59.60 | 9:11.54 | 224985 | 266363
8 | 59:11.39 | 6:56.00 | 266364 | 297563
9 | 66:07.39 | 6:30.66 | 297564 | 326879

Range status and errors

Selected range

Filename Y:\_EAC_New\_ELUX\Various - Elektro Codes.One.wav

Peak level 100.0 %
Range quality 100.0 %
Test CRC 36361347
Copy CRC 36361347
Copy OK

No errors occurred


AccurateRip summary

Track 1 accurately ripped (confidence 1) [397E26D8]
Track 2 accurately ripped (confidence 1) [1F886F17]
Track 3 accurately ripped (confidence 1) [08510D07]
Track 4 accurately ripped (confidence 1) [230A64A7]
Track 5 accurately ripped (confidence 1) [906044A3]
Track 6 accurately ripped (confidence 1) [805FCD1F]
Track 7 accurately ripped (confidence 1) [C9E2FBA4]
Track 8 accurately ripped (confidence 1) [DB62C188]
Track 9 accurately ripped (confidence 1) [C9F7B41B]

All tracks accurately ripped

End of status report
Thanks to EPSmuz

More Elektrolux releases from my blog:

LOSSLESS:

_______________

MP3 320 kbps:

_______________

Covers:





Direct Download


Tags: Elektro

VA - Elektro Codes. One (1997) Fast Download via Rapidshare Hotfile Fileserve Filesonic Megaupload, VA - Elektro Codes. One (1997) Torrents and Emule Download or anything related.
Dear visitor, you went to website as unregistered user.
We encourage you to Register or Login to website under your name.
Information
Members of Guest cannot leave comments.