Yann Robin: Vulcano, Art of Metal I & III - Billard, Malkki, Ensemble Intercontemporain (2012)

Category: Music | Comment: 0

Download Now

Yann Robin: Vulcano, Art of Metal I & III - Billard, Malkki, Ensemble Intercontemporain (2012)
Yann Robin: Vulcano, Art of Metal I & III - Billard, Malkki, Ensemble Intercontemporain (2012)
EAC Rip | Flac (Image + cue + log) | 1 CD | Full Scans | 398 MB
Genre: Classical | Label: Kairos | Catalog Number: 13262
“Yann Robin is a young composer of contemporary music and is based in Paris. These pieces, Vulcano (for ensemble of 29 musicians), Art of Metal I (written for an all-metal bass clarinet and 17 musicians), and Art of Metal III for the same bass clarinet but fewer musicians, represent explosive writing and sounds but scored in a very approachable way.
“The cycle’s connecting thread, the driving idea, is a metaphorical approach to what metal brings to mind, this alloy often synonymous with strength, power, solidity, energy, brilliance, shine…” (Yann Robin)
Composer: Yann Robin
Performer: Alain Billard
Conductor: Susanna Mälkki
Orchestra/Ensemble: Ensemble InterContemporain ”


Tracklisting:
1. Vulcano by Yann Robin
Performer: Alain Billard (Contrabass Clarinet)
Conductor: Susanna Mälkki
Orchestra/Ensemble: Ensemble InterContemporain
2. Art of Metal I by Yann Robin
Performer: Alain Billard (Contrabass Clarinet)
Conductor: Susanna Mälkki
Orchestra/Ensemble: Ensemble InterContemporain
3. Art of Metal III by Yann Robin
Performer: Alain Billard (Contrabass Clarinet)
Conductor: Susanna Mälkki
Orchestra/Ensemble: Ensemble InterContemporain
EAC LOGExact Audio Copy V1.0 beta 3 from 29. August 2011
EAC extraction logfile from 19. August 2013, 18:26
Alain Billard, Ensemble intercontemporain, Susanna Mälkki, IRCAM-Centre Pompidou / Yann Robin - Vulcano; Art of Metal
Used drive : HL-DT-STDVDRRW GWA-4164B Adapter: 5 ID: 0
Read mode : Secure
Utilize accurate stream : Yes
Defeat audio cache : Yes
Make use of C2 pointers : No
Read offset correction : 102
Overread into Lead-In and Lead-Out : No
Fill up missing offset samples with silence : Yes
Delete leading and trailing silent blocks : No
Null samples used in CRC calculations : Yes
Used interface : Native Win32 interface for Win NT & 2000
Used output format : User Defined Encoder
Selected bitrate : 896 kBit/s
Quality : High
Add ID3 tag : No
Command line compressor : C:\Program Files\Exact Audio Copy\FLAC\FLAC.EXE
Additional command line options : -V -8 %source%
TOC of the extracted CD
Track | Start | Length | Start sector | End sector
---------------------------------------------------------
1 | 0:00.00 | 35:51.53 | 0 | 161377
2 | 35:51.53 | 20:47.69 | 161378 | 254971
3 | 56:39.47 | 24:59.20 | 254972 | 367416
Range status and errors
Selected range
Filename D:\temp\Music\Yann Robin - Vulcano; Art of Metal (Billard, Ensemble intercontemporain, Malkki)\Yann Robin - Vulcano; Art of Metal.wav
Peak level 99.9 %
Extraction speed 3.2 X
Range quality 100.0 %
Test CRC 2D5E914D
Copy CRC 2D5E914D
Copy OK
No errors occurred
AccurateRip summary
Track 1 not present in database
Track 2 not present in database
Track 3 not present in database
None of the tracks are present in the AccurateRip database
End of status report
==== Log checksum A6D0064EE079BBF46E76FFBAAE4EA289BEA1C9257E07AACEFDD741D69A7B1ADC ====
Thanks to the original releaser
UPLOADED Download Link

http://uploaded.net/file/ocsr1m48/
http://uploaded.net/file/hrm91ru2/

EXTABIT Download Link

http://extabit.com/file/2du8etmcn2jt7/
http://extabit.com/file/2du8etmcn2mtn/
Direct Download


Tags: Vulcano, Billard, Malkki, Ensemble, Intercontempora

Yann Robin: Vulcano, Art of Metal I & III - Billard, Malkki, Ensemble Intercontemporain (2012) Fast Download via Rapidshare Hotfile Fileserve Filesonic Megaupload, Yann Robin: Vulcano, Art of Metal I & III - Billard, Malkki, Ensemble Intercontemporain (2012) Torrents and Emule Download or anything related.
Dear visitor, you went to website as unregistered user.
We encourage you to Register or Login to website under your name.
Information
Members of Guest cannot leave comments.