Resistor - Rise (2010)

Category: Music | Comment: 0

Download Now

Resistor - Rise (2010)
Resistor - Rise (2010)
EAC Rip | FLAC: Image+Cue+Log | 553.87 Mb | MP3 CBR 320 kbps | 196.07 Mb | Scans | Time: 1:18:37
Genre: Rock, Progressive Rock, Crossover Prog | Label: Resistor - Independent | Cat.№: N/A
“Resistor is an American band, a side project of brilliant multi-instrumentalist Steve Unruh, who is now together with Rob Winslow, Barry Farrands and Fran Turner. Rise is composed by “two sides” as the band put on purpose. The first one is composed by 5 compositions, including a 16-minute track; while the second one can be considered a 39-minute epic, divided in 10 passages (songs).”


Steve Unruh | Amazon | Progarchives | DPRP
Resistor - Rise (2010)

Track Listing
~ Side One ~
1. The Secret of the Open Sky (7:00)
2. Beyond This Masquerade (4:40)
3. Spaceghetti (5:19)
4. Ether (5:43)
5. Mimosa (16:04)
~ Side Two ~
The Land of No Groove
6. [segue] (0:33)
7. i. Prologue (3:43)
8. ii. Dusty Plain (3:23)
9. iii. Jagged Mountain (4:59)
10. iv. Land's End (3:48)
11. v. Off to Sea (2:36)
12. vi. Sea Monster Battle (5:29)
13. vii. The Isle Appears (2:17)
14. viii. Convincing Islanders (5:01)
15. ix. Sailing Home (3:07)
16. x. Groove Revolution (4:55)
The Band
Steve Unruh - guitar, vox, violin, flute
Rob Winslow - bass guitar
Barry Farrands - drumkit, backing vox
Fran Turner - guitar
Notes
This album as heavy/crossover prog with influnces from early Rush (2112), a little Tull with the flute passages and early Kansas (s/t debut) with the use of violins and is somewhat reminescent vibes of Sleeping In Traffic, Part II from Beardfish (another superb album).
EAC LogExact Audio Copy V0.99 prebeta 4 from 23. January 2008
Отчёт EAC об извлечении, выполненном 26. августа 2010, 20:33
Resistor / Rise
Дисковод: HL-DT-STDVDRAM GSA-H42L Adapter: 0 ID: 0
Режим чтения : Достоверность
Использование точного потока : Да
Отключение кэша аудио : Да
Использование указателей C2 : Нет
Коррекция смещения при чтении : 667
Способность читать области Lead-in и Lead-out : Нет
Заполнение пропущенных сэмплов тишиной : Да
Удаление блоков с тишиной в начале и конце : Нет
При вычислениях CRC использовались нулевые сэмплы : Нет
Интерфейс : Встроенный Win32-интерфейс для Win NT/2000
Выходной формат : Пользовательский кодировщик
Выбранный битрейт : 320 kBit/s
Качество : Высокий
Добавление ID3-тэга : Нет
Утилита сжатия : C:\Program Files\FLAC\flac.exe
Дополнительные параметры : -8 -V %s
TOC извлечённого CD
Трек | Старт | Длительность | Начальный сектор | Конечный сектор
---------------------------------------------------------------------
1 | 0:00.00 | 7:00.33 | 0 | 31532
2 | 7:00.33 | 4:40.07 | 31533 | 52539
3 | 11:40.40 | 5:19.08 | 52540 | 76472
4 | 16:59.48 | 5:43.47 | 76473 | 102244
5 | 22:43.20 | 16:04.56 | 102245 | 174600
6 | 38:48.01 | 0:33.09 | 174601 | 177084
7 | 39:21.10 | 3:43.67 | 177085 | 193876
8 | 43:05.02 | 3:23.33 | 193877 | 209134
9 | 46:28.35 | 4:59.54 | 209135 | 231613
10 | 51:28.14 | 3:48.04 | 231614 | 248717
11 | 55:16.18 | 2:36.23 | 248718 | 260440
12 | 57:52.41 | 5:29.26 | 260441 | 285141
13 | 63:21.67 | 2:17.30 | 285142 | 295446
14 | 65:39.22 | 5:01.14 | 295447 | 318035
15 | 70:40.36 | 3:07.66 | 318036 | 332126
16 | 73:48.27 | 4:55.08 | 332127 | 354259
Характеристики диапазона извлечения и сообщения об ошибках
Выбранный диапазон
Имя файла F:\AND\CD Images\New\Resistor - 2010 - Rise [Flac]\Resistor - Rise.wav
Пиковый уровень 100.0 %
Качество диапазона 100.0 %
CRC копии F73AE637
Копирование... OK
Ошибок не произошло
AccurateRip: сводка
Трек 1 точное извлечение (доверие 2) [D2168908]
Трек 2 точное извлечение (доверие 2) [6A20A84D]
Трек 3 точное извлечение (доверие 2) [F646EA3B]
Трек 4 точное извлечение (доверие 2) [686FE46C]
Трек 5 точное извлечение (доверие 2) [F0744EBC]
Трек 6 точное извлечение (доверие 2) [56869A00]
Трек 7 точное извлечение (доверие 2) [C104DCFD]
Трек 8 точное извлечение (доверие 2) [32217B74]
Трек 9 точное извлечение (доверие 2) [C546D14A]
Трек 10 точное извлечение (доверие 2) [24EDD4F3]
Трек 11 точное извлечение (доверие 2) [A22D5F65]
Трек 12 точное извлечение (доверие 2) [0BC0BDF7]
Трек 13 точное извлечение (доверие 2) [92E2AFB2]
Трек 14 точное извлечение (доверие 2) [E907DF35]
Трек 15 точное извлечение (доверие 2) [A6E2F864]
Трек 16 точное извлечение (доверие 2) [6A968644]
Все треки извлечены точно
Конец отчёта
Many thanks to the original uploader: Andar
Lossless
SECUREUPLOAD Download Link

http://www.secureupload.eu/yj1bdk1zpj8u/tekk14-01-11-83-ReRi.rar
http://www.secureupload.eu/hfcufbe5zd27/tekk14-01-11-83-ReRil.rar

UPLOADED Download Link

http://uploaded.net/file/1tg5nxfz
http://uploaded.net/file/vaea7gqo

RAPIDGATOR Download Link

http://rapidgator.net/file/f4b4b88d2b7e324ff344a9ef2def59df
http://rapidgator.net/file/1fea708cb0f4dcc84dc602197ad5290c
Direct Download


Tags: Resistor

Resistor - Rise (2010) Fast Download via Rapidshare Hotfile Fileserve Filesonic Megaupload, Resistor - Rise (2010) Torrents and Emule Download or anything related.
Dear visitor, you went to website as unregistered user.
We encourage you to Register or Login to website under your name.
Information
Members of Guest cannot leave comments.