Dana - The Best Of Dana (1998)

Category: Music | Comment: 0

Download Now

Dana - The Best Of Dana (1998)

Dana - The Best Of Dana (1998)
EAC Rip | FLAC Tracks + Cue + Log - 442 MB | MP3 CBR @320 kbps - 168 MB | Full scans - 51 MB
Label: Sony Music Entertainment (UK) Ltd. / Epic | Catalog.#: 491452 2 | Genre: Pop Rock

"The winner of the 1970 Eurovision Song Contest, where she represented her homeland, Ireland, singer Dana was born Rosemary Brown in Islington, London, on August 30, 1951. Her family had relocated to the U.K. the previous year from their home in Derry, Northern Ireland, and they returned there when Dana was five. The following year, the little girl won the first of many talent contests and, shortly before her 16th birthday, she was signed to the Decca label's Rex subsidiary."

Track Listing:

01. All Kinds Of Everything - 2:47
02. Who Put The Lights Out - 3:13
03. Please Tell Him That I Said Hello - 3:19
04. There's Nothin' You Can Do To Change My Mind - 3:06
05. It's Gonna Be A Cold, Cold Christmas - 3:17
06. I'm Not In Love - 4:14
07. Never Gonna Fall In Love Again - 3:14
08. There's A Kind Of Hush - 3:36
09. Fairytale - 3:09
10. All My Loving - 3:05
11. I Get A Little Sentimental Over You - 3:29
12. Rose Garden - 3:41
13. Totus Tuus - 3:36
14. If - 3:01
15. Over The Rainbow - 3:10
16. The Girl Is Back (In Town) - 5:58
17. Something's Cookin' In The Kitchen - 4:08
18. I Can't Get Over Getting Over You - 3:09
19. Cry Like A Baby - 3:23
20. Every Night - 4:22

Exact Audio Copy V1.0 beta 3 from 29. August 2011

EAC extraction logfile from 22. August 2014, 21:20

Dana / The Best Of Dana

Used drive : Optiarc DVD RW AD-7280S Adapter: 3 ID: 0

Read mode : Secure
Utilize accurate stream : Yes
Defeat audio cache : Yes
Make use of C2 pointers : No

Read offset correction : 48
Overread into Lead-In and Lead-Out : No
Fill up missing offset samples with silence : Yes
Delete leading and trailing silent blocks : No
Null samples used in CRC calculations : Yes
Used interface : Native Win32 interface for Win NT & 2000
Gap handling : Appended to previous track

Used output format : User Defined Encoder
Selected bitrate : 768 kBit/s
Quality : High
Add ID3 tag : No
Command line compressor : C:\Program Files\Exact Audio Copy\Flac\flac.exe
Additional command line options : -V -8 -T "Genre=%genre%" -T "Artist=%artist%" -T "Title=%title%" -T "Album=%albumtitle%" -T "Date=%year%" -T "Tracknumber=%tracknr%" -T "Comment=%comment%" %source%

TOC of the extracted CD Track | Start | Length | Start sector | End sector
---
1 | 0:00.00 | 2:47.65 | 0 | 12589
2 | 2:47.65 | 3:13.72 | 12590 | 27136
3 | 6:01.62 | 3:19.05 | 27137 | 42066
4 | 9:20.67 | 3:06.23 | 42067 | 56039
5 | 12:27.15 | 3:17.47 | 56040 | 70861
6 | 15:44.62 | 4:14.53 | 70862 | 89964
7 | 19:59.40 | 3:14.02 | 89965 | 104516
8 | 23:13.42 | 3:36.13 | 104517 | 120729
9 | 26:49.55 | 3:09.57 | 120730 | 134961
10 | 29:59.37 | 3:05.50 | 134962 | 148886
11 | 33:05.12 | 3:29.15 | 148887 | 164576
12 | 36:34.27 | 3:41.68 | 164577 | 181219
13 | 40:16.20 | 3:36.00 | 181220 | 197419
14 | 43:52.20 | 3:01.50 | 197420 | 211044
15 | 46:53.70 | 3:10.47 | 211045 | 225341
16 | 50:04.42 | 5:58.20 | 225342 | 252211
17 | 56:02.62 | 4:08.35 | 252212 | 270846
18 | 60:11.22 | 3:09.00 | 270847 | 285021
19 | 63:20.22 | 3:23.15 | 285022 | 300261
20 | 66:43.37 | 4:22.18 | 300262 | 319929

Track 1 Filename D:\CD\The Best Of Dana\01. All Kinds Of Everything.wav Pre-gap length 0:00:02.00 Peak level 96.1 %
Extraction speed 2.4 X
Track quality 100.0 %
Test CRC 8C3B0FF2
Copy CRC 8C3B0FF2
Accurately ripped (confidence 1) [2B2D480B] (AR v2)
Copy OK

Track 2 Filename D:\CD\The Best Of Dana\02. Who Put The Lights Out.wav Peak level 94.2 %
Extraction speed 2.7 X
Track quality 100.0 %
Test CRC 3D9F36F7
Copy CRC 3D9F36F7
Accurately ripped (confidence 1) [27E8018B] (AR v2)
Copy OK

Track 3 Filename D:\CD\The Best Of Dana\03. Please Tell Him That I Said Hello.wav Peak level 85.2 %
Extraction speed 2.9 X
Track quality 100.0 %
Test CRC 5288B350
Copy CRC 5288B350
Accurately ripped (confidence 1) [D0769FF1] (AR v2)
Copy OK

Track 4 Filename D:\CD\The Best Of Dana\04. There's Nothin' You Can Do To Change My Mind.wav Peak level 88.9 %
Extraction speed 3.0 X
Track quality 100.0 %
Test CRC 7327BDC4
Copy CRC 7327BDC4
Accurately ripped (confidence 1) [9CB59B9D] (AR v2)
Copy OK

Track 5 Filename D:\CD\The Best Of Dana\05. It's Gonna Be A Cold, Cold Christmas.wav Peak level 94.1 %
Extraction speed 3.2 X
Track quality 100.0 %
Test CRC 2A19DE6E
Copy CRC 2A19DE6E
Accurately ripped (confidence 1) [08502379] (AR v2)
Copy OK

Track 6 Filename D:\CD\The Best Of Dana\06. I'm Not In Love.wav Peak level 97.9 %
Extraction speed 3.5 X
Track quality 100.0 %
Test CRC 90D2FE09
Copy CRC 90D2FE09
Accurately ripped (confidence 1) [229E9DB2] (AR v2)
Copy OK

Track 7 Filename D:\CD\The Best Of Dana\07. Never Gonna Fall In Love Again.wav Peak level 100.0 %
Extraction speed 3.5 X
Track quality 100.0 %
Test CRC B3CF25F1
Copy CRC B3CF25F1
Accurately ripped (confidence 1) [A5A45984] (AR v2)
Copy OK

Track 8 Filename D:\CD\The Best Of Dana\08. There's A Kind Of Hush.wav Peak level 96.6 %
Extraction speed 3.7 X
Track quality 100.0 %
Test CRC C9D22B3B
Copy CRC C9D22B3B
Accurately ripped (confidence 1) [9AD0E24D] (AR v2)
Copy OK

Track 9 Filename D:\CD\The Best Of Dana\09. Fairytale.wav Peak level 80.7 %
Extraction speed 3.8 X
Track quality 100.0 %
Test CRC 47A24608
Copy CRC 47A24608
Accurately ripped (confidence 1) [84F8B560] (AR v2)
Copy OK

Track 10 Filename D:\CD\The Best Of Dana\10. All My Loving.wav Pre-gap length 0:00:03.02 Peak level 97.7 %
Extraction speed 3.9 X
Track quality 100.0 %
Test CRC FAD6F90F
Copy CRC FAD6F90F
Accurately ripped (confidence 1) [E9180928] (AR v2)
Copy OK

Track 11 Filename D:\CD\The Best Of Dana\11. I Get A Little Sentimental Over You.wav Peak level 95.1 %
Extraction speed 4.1 X
Track quality 100.0 %
Test CRC E5F8D239
Copy CRC E5F8D239
Accurately ripped (confidence 1) [467E24C9] (AR v2)
Copy OK

Track 12 Filename D:\CD\The Best Of Dana\12. Rose Garden.wav Peak level 94.4 %
Extraction speed 4.3 X
Track quality 100.0 %
Test CRC 0DB2DBAA
Copy CRC 0DB2DBAA
Accurately ripped (confidence 1) [0C162B81] (AR v2)
Copy OK

Track 13 Filename D:\CD\The Best Of Dana\13. Totus Tuus.wav Peak level 83.9 %
Extraction speed 4.4 X
Track quality 100.0 %
Test CRC 5263030E
Copy CRC 5263030E
Accurately ripped (confidence 1) [09CF219D] (AR v2)
Copy OK

Track 14 Filename D:\CD\The Best Of Dana\14. If.wav Peak level 80.5 %
Extraction speed 4.4 X
Track quality 100.0 %
Test CRC 0ACF0A48
Copy CRC 0ACF0A48
Accurately ripped (confidence 1) [7F5289B4] (AR v2)
Copy OK

Track 15 Filename D:\CD\The Best Of Dana\15. Over The Rainbow.wav Peak level 94.2 %
Extraction speed 4.5 X
Track quality 100.0 %
Test CRC FB958B9C
Copy CRC FB958B9C
Accurately ripped (confidence 1) [741DB272] (AR v2)
Copy OK

Track 16 Filename D:\CD\The Best Of Dana\16. The Girl Is Back (In Town).wav Peak level 94.0 %
Extraction speed 5.1 X
Track quality 100.0 %
Test CRC CCEE000E
Copy CRC CCEE000E
Accurately ripped (confidence 1) [61FCD317] (AR v2)
Copy OK

Track 17 Filename D:\CD\The Best Of Dana\17. Something's Cookin' In The Kitchen.wav Peak level 87.5 %
Extraction speed 5.0 X
Track quality 100.0 %
Test CRC E85BF5F6
Copy CRC E85BF5F6
Accurately ripped (confidence 1) F41C6E9 (AR v2)
Copy OK

Track 18 Filename D:\CD\The Best Of Dana\18. I Can't Get Over Getting Over You.wav Peak level 85.1 %
Extraction speed 4.9 X
Track quality 100.0 %
Test CRC 331F6071
Copy CRC 331F6071
Accurately ripped (confidence 1) [DA3864A7] (AR v2)
Copy OK

Track 19 Filename D:\CD\The Best Of Dana\19. Cry Like A Baby.wav Peak level 97.7 %
Extraction speed 4.5 X
Track quality 99.9 %
Test CRC 37D4CAD8
Copy CRC 37D4CAD8
Accurately ripped (confidence 1) [1E96BD97] (AR v2)
Copy OK

Track 20 Filename D:\CD\The Best Of Dana\20. Every Night.wav Peak level 97.7 %
Extraction speed 5.4 X
Track quality 100.0 %
Test CRC 961C811B
Copy CRC 961C811B
Accurately ripped (confidence 1) [CB567C4D] (AR v2)
Copy OK

All tracks accurately ripped

No errors occurred

End of status report

---- CUETools DB Plugin V2.1.3

[CTDB TOCID: Cjpkd9X0b8Ru0Na7MU_QfdTOk1M-] found, Submit result: Cjpkd9X0b8Ru0Na7MU_QfdTOk1M- has been confirmed
[d2020734] (1/1) Accurately ripped

==== Log checksum F14897176345F5575493F17EDD3C19B2511A7F9C6ED3B6490A39B1314043D186 ====

[CUETools log; Date: 9/1/2014 10:52:05 PM; Version: 2.1.4]
[AccurateRip ID: 00311112-02d7a8ef-1110a914] found.
Track [ CRC | V2 ] Status
01 [efd7fcae|2b2d480b] (0+1/1) Accurately ripped
02 4cc49c4|27e8018b (0+1/1) Accurately ripped
03 [d6d300b3|d0769ff1] (0+1/1) Accurately ripped
04 [8e9a601d|9cb59b9d] (0+1/1) Accurately ripped
05 [73b47366|08502379] (0+1/1) Accurately ripped
06 [5ffc7c50|229e9db2] (0+1/1) Accurately ripped
07 [a67cc92f|a5a45984] (0+1/1) Accurately ripped
08 [291cc457|9ad0e24d] (0+1/1) Accurately ripped
09 [4b1216a5|84f8b560] (0+1/1) Accurately ripped
10 [28903c0d|e9180928] (0+1/1) Accurately ripped
11 [114b2f9f|467e24c9] (0+1/1) Accurately ripped
12 [d8bd274f|0c162b81] (0+1/1) Accurately ripped
13 [fda9e08c|09cf219d] (0+1/1) Accurately ripped
14 4133ce4|7f5289b4 (0+1/1) Accurately ripped
15 [0038fc3d|741db272] (0+1/1) Accurately ripped
16 [1a35ddd0|61fcd317] (0+1/1) Accurately ripped
17 bfe624e|bf41c6e9 (0+1/1) Accurately ripped
18 [a19501d3|da3864a7] (0+1/1) Accurately ripped
19 [81cb279a|1e96bd97] (0+1/1) Accurately ripped
20 ac1f9aa|cb567c4d (0+1/1) Accurately ripped

Track Peak [ CRC32 ] [W/O NULL] [ LOG ]
-- 100.0 [7BFEBDB0] [D979E53C]
01 96.1 [8C3B0FF2] [7BF091A2] CRC32
02 94.2 [3D9F36F7] [11108A9F] CRC32
03 85.2 [5288B350] 0AD448D CRC32
04 88.9 [7327BDC4] [A9E7AD22] CRC32
05 94.1 [2A19DE6E] [2D039C0D] CRC32
06 97.9 [90D2FE09] [7684A45F] CRC32
07 100.0 3CF25F1 [CE8C68B3] CRC32
08 96.6 [C9D22B3B] [AAB13E6B] CRC32
09 80.7 [47A24608] [69098AEB] CRC32
10 97.7 [FAD6F90F] [4783665F] CRC32
11 95.1 [E5F8D239] [85739425] CRC32
12 94.4 [0DB2DBAA] [DA3A3877] CRC32
13 83.9 [5263030E] [05C2A572] CRC32
14 80.5 [0ACF0A48] [CEF30986] CRC32
15 94.2 [FB958B9C] [559C05C0] CRC32
16 94.0 [CCEE000E] [CD567648] CRC32
17 87.5 [E85BF5F6] [1C9E24D5] CRC32
18 85.1 [331F6071] [314B805F] CRC32
19 97.7 [37D4CAD8] [EF079855] CRC32
20 97.7 [961C811B] [6A3F94C4] CRC32

CD Released Date: August 3, 1998
Format: CD, Compilation
Length: 1:11:06

Dana - The Best Of Dana (1998)

Dana - The Best Of Dana (1998)


DOWNLOAD LINKS:
Buy Premium From My Links To Get Resumable Support,Max Speed & Support Me


Links are Interchangeable - No Password - Single Extraction
Direct Download

Dana - The Best Of Dana (1998) Fast Download via Rapidshare Hotfile Fileserve Filesonic Megaupload, Dana - The Best Of Dana (1998) Torrents and Emule Download or anything related.
Dear visitor, you went to website as unregistered user.
We encourage you to Register or Login to website under your name.
Information
Members of Guest cannot leave comments.