Elf Project - The Great Divide (2012)

Category: Music | Comment: 0

Download Now

Elf Project - The Great Divide (2012)

Elf Project - The Great Divide (2012)
Rock | 1cd | EAC Rip | Flac + Cue + Log | covers
10T 10T10055 | rel: 2012 | 340Mb

Elf Project hails from the greater New York area; it's the vision of multi-instrumentalist Carl Schultz who blends progressive rock from the seventies with elements of psychedelic music from the sixties and hard rock. Their debut album Mirage (2009) was more or less Carl's studio project together with guest musicians. On this second album The Great Divide, Schultz (lead vocals, bass, keyboards) is accompanied by Mike Cappadozy (guitars) and Dave Wayne (drums).
Right from the first notes of the first track Rush crossed my mind. The sound of Rush is clearly emphasized throughout the album. Schultz is unmistakably influenced by this famous Canadian trio. The way he sings is strongly reminiscent of Geddy Lee's singing, although his voice is less high-pitched. Also the bass lines are quite similar to the way Mr. Lee plays on his Rickenbacker. However, the keyboard parts are less emphasized in the mix than Geddy Lee used to do on many Rush-compositions. The guitar parts, however, are less good than those of Alex Lifeson, but that doesn't mean that they aren't enjoyable. Most tracks contain vocals except for the instrumental piece called No More Monkey Business, which is undoubtedly the highlight on The Great Divide. You might compare it to the Rush-tune YYZ, since the same kind of outstanding instrumental parts can be enjoyed on this track. The other tracks are worthwhile listening to as well although they don't have the same impact as the Rush-songs mentioned in the intro. But these pieces are better than most of the ones Rush recorded after Hold Your Fire.
People who agree that Rush's music nowadays sounds less progressive and more straightforward should try the music of Elf Project. I think they will probably be more pleased with The Great Divide than with, for example, the Rush-album Vapor Trails (2002). If you liked the music of Rush in the eighties you should check out this one for sure. You won't regret it! ~backgroundmagazine

Track listing
01. We Pay The Price (4:44)
02. The Sirens Call (4:28)
03. Love For Sale (4:31)
04. Illusion (4:56)
05. Pull Me Under (4:28)
06. No More Monkey Business (4:04)
07. Reach Out (4:14)
08. Heaven Above (4:19)
09. What I Believe (3:59)
10. Any Other Day (3:20)
~ (43:04)

Personnel
- Carl Schultz - bass; keyboards; vocals
- Mike Cappadozy - guitars
- Dave Wayne - drums


Exact Audio Copy V1.0 beta 3 from 29. August 2011

Отчёт EAC об извлечении, выполненном 8. ноября 2013, 10:30

Elf Project / The Great Divide

Дисковод: ASUS BW-12D1S-U Adapter: 1 ID: 1

Режим чтения : Достоверность
Использование точного потока : Да
Отключение кэша аудио : Да
Использование указателей C2 : Нет

Коррекция смещения при чтении : 667
Способность читать области Lead-in и Lead-out : Нет
Заполнение пропущенных сэмплов тишиной : Да
Удаление блоков с тишиной в начале и конце : Нет
При вычислениях CRC использовались нулевые сэмплы : Да
Интерфейс : Встроенный Win32-интерфейс для Win NT/2000

Выходной формат : Пользовательский кодировщик
Выбранный битрейт : 1024 kBit/s
Качество : Высокий
Добавление ID3-тега : Нет
Утилита сжатия : C:\Program Files (x86)\Exact Audio Copy\Flac\flac.exe
Дополнительные параметры : -V -8 -T "Date=%year%" -T "Genre=%genre%" %source%

TOC извлечённого CD Трек | Старт | Длительность | Начальный сектор | Конечный сектор
-------
1 | 0:00.00 | 4:44.37 | 0 | 21336
2 | 4:44.37 | 4:27.48 | 21337 | 41409
3 | 9:12.10 | 4:30.65 | 41410 | 61724
4 | 13:43.00 | 4:56.37 | 61725 | 83961
5 | 18:39.37 | 4:27.38 | 83962 | 104024
6 | 23:07.00 | 4:04.01 | 104025 | 122325
7 | 27:11.01 | 4:14.36 | 122326 | 141411
8 | 31:25.37 | 4:19.00 | 141412 | 160836
9 | 35:44.37 | 3:59.00 | 160837 | 178761
10 | 39:43.37 | 3:20.11 | 178762 | 193772

Характеристики диапазона извлечения и сообщения об ошибках

Выбранный диапазон Имя файла E:\cd\Elf Project 2CD\Elf Project (2012) - The Great Divide\Elf Project - The Great Divide.wav Пиковый уровень 98.0 %
Скорость извлечения 6.9 X
Качество диапазона 99.9 %
CRC теста 5EB0CB0C
CRC копии 5EB0CB0C
Копирование... OK

Ошибок не произошло


AccurateRip: сводка

Трек 1 отсутствует в базе данных
Трек 2 отсутствует в базе данных
Трек 3 отсутствует в базе данных
Трек 4 отсутствует в базе данных
Трек 5 отсутствует в базе данных
Трек 6 отсутствует в базе данных
Трек 7 отсутствует в базе данных
Трек 8 отсутствует в базе данных
Трек 9 отсутствует в базе данных
Трек 10 отсутствует в базе данных

Ни одного трека нет в базе AccurateRip

Конец отчёта

[CUETools log; Date: 2015.01.13. 11:31:46; Version: 2.1.4]
[CTDB TOCID: OcD4LN7mII3tQ87EM_HhfR0AR2g-] found.
Track | CTDB Status
1 | (1/1) Accurately ripped
2 | (1/1) Accurately ripped
3 | (1/1) Accurately ripped
4 | (1/1) Accurately ripped
5 | (1/1) Accurately ripped
6 | (1/1) Accurately ripped
7 | (1/1) Accurately ripped
8 | (1/1) Accurately ripped
9 | (1/1) Accurately ripped
10 | (1/1) Accurately ripped
[AccurateRip ID: 0010ee41-008675df-8d0a170a] found.
Track [ CRC | V2 ] Status
01 [f55dfc2a|fe82a1ff] (0+1/1) Accurately ripped
02 [a0853b95|0b470824] (0+1/1) Accurately ripped
03 [42710dcd|2daf47cd] (0+1/1) Accurately ripped
04 [58c78e78|c1da1eb3] (0+1/1) Accurately ripped
05 d5b0e1e|6f8b81ad (0+1/1) Accurately ripped
06 [5fb5bb5f|a87cdba1] (0+1/1) Accurately ripped
07 [5735e44b|2eb45511] (0+1/1) Accurately ripped
08 [eac5d4f6|eac2fc19] (0+1/1) Accurately ripped
09 [10bea73d|86dc4279] (0+1/1) Accurately ripped
10 57b97cb|2a2f7f16 (0+1/1) Accurately ripped

Track Peak [ CRC32 ] [W/O NULL] [ LOG ]
-- 98,0 [5EB0CB0C] [D07AA1C9] CRC32
01 98,0 [495DAEF4] [CC097A3F]
02 97,9 [87BF5A38] 4832B5A
03 98,0 [D230F607] [C269D542]
04 98,0 [C18DC01D] [4252C570]
05 97,9 [DB03FDCF] [D9E08776]
06 97,9 [707B6464] [FD0A15B9]
07 98,0 [F590B154] [FBA82871]
08 98,0 [A45245A9] [C55CF636]
09 97,9 [EE8A5026] [963BFD1C]
10 98,0 [963F273A] [579BF341]

Thx to Pasheka-Pacheka
DOWNLOAD LINKS:
Buy Premium From My Links To Get Resumable Support,Max Speed & Support Me


Links are Interchangeable - No Password - Single Extraction
Direct Download


Tags: Project, Divide

Elf Project - The Great Divide (2012) Fast Download via Rapidshare Hotfile Fileserve Filesonic Megaupload, Elf Project - The Great Divide (2012) Torrents and Emule Download or anything related.
Dear visitor, you went to website as unregistered user.
We encourage you to Register or Login to website under your name.
Information
Members of Guest cannot leave comments.