The Rolling Stones - Beggar's Banquet (1968) [Polydor POCD-1923, Japan]

Category: Music | Comment: 0

Download Now

The Rolling Stones - Beggar's Banquet (1968) [Polydor POCD-1923, Japan]

The Rolling Stones - Beggar's Banquet (1968)
EAC | Flac(Image) + Cue + Log & MP3 CBR 320Kbps
1995 | Polydor, POCD-1923 | ~ 262 or 103 Mb | Scans(600dpi, jpg) -> 104 Mb
Blues Rock / Classic Rock

"The Stones forsook psychedelic experimentation to return to their blues roots on this celebrated album, which was immediately acclaimed as one of their landmark achievements. A strong acoustic Delta blues flavor colors much of the material, particularly "Salt of the Earth" and "No Expectations," which features some beautiful slide guitar work..."

The Rolling Stones - Beggar's Banquet (1968):

The Rolling Stones - Beggar's Banquet (1968) [Polydor POCD-1923, Japan]

Tracklist:

1. Sympathy for the Devil (6:26)
2. No Expectations (4:02)
3. Dear Doctor (3:27)
4. Parachute Woman (2:24)
5. Jig-Saw Puzzle (6:18)
6. Street Fighting Man (3:18)
7. Prodigal Son (2:53)
8. Stray Cat Blues (4:40)
9. Factory Girl (2:11)
10. Salt of the Earth (4:54)

Musicians:

Mick Jagger - lead and backing vocals, harmonica on "Parachute Woman"
Keith Richards - acoustic, electric and slide guitar, bass guitar on "Sympathy for the Devil" and "Street Fighting Man", backing vocals, lead vocals on opening of "Salt of the Earth"
Brian Jones - slide guitar on "No Expectations", mellotron on "Jigsaw Puzzle" and "Stray Cat Blues", harmonica on "Dear Doctor" and "Prodigal Son", sitar and tambura on "Street Fighting Man", backing vocals on "Sympathy for the Devil"
Charlie Watts - drums, tabla on "Factory Girl", backing vocals on "Sympathy for the Devil"
Bill Wyman - bass guitar, backing vocals and maracas on "Sympathy for the Devil"

Additional musicians:
Nicky Hopkins - piano
Rocky Dijon - congas on "Sympathy for the Devil", "Stray Cat Blues", "Factory Girl"
Ric Grech - fiddle on "Factory Girl"
Dave Mason - mellotron on "Factory Girl", shehnai on "Street Fighting Man"
Jimmy Miller - backing vocals on "Sympathy for the Devil"
Watts Street Gospel Choir - backing vocals on "Salt of the Earth"


Exact Audio Copy V1.0 beta 3 from 29. August 2011

EAC extraction logfile from 7. April 2013, 14:10

The Rolling Stones / Beggar's Banquet (POCD-1923)

Used drive : PLEXTOR DVDR PX-891SA Adapter: 1 ID: 0

Read mode : Secure
Utilize accurate stream : Yes
Defeat audio cache : Yes
Make use of C2 pointers : No

Read offset correction : 6
Overread into Lead-In and Lead-Out : No
Fill up missing offset samples with silence : Yes
Delete leading and trailing silent blocks : No
Null samples used in CRC calculations : Yes
Used interface : Native Win32 interface for Win NT & 2000

Used output format : User Defined Encoder
Selected bitrate : 1024 kBit/s
Quality : High
Add ID3 tag : No
Command line compressor : C:\Program Files\Exact Audio Copy\Flac\flac.exe
Additional command line options : -V -8 -T "Genre=%genre%" -T "Artist=%artist%" -T "Title=%title%" -T "Album=%albumtitle%" -T "Date=%year%" -T "Tracknumber=%tracknr%" -T "Comment=%comment%" %source%

TOC of the extracted CD Track | Start | Length | Start sector | End sector
-----------
1 | 0:00.32 | 6:28.45 | 32 | 29176
2 | 6:29.02 | 4:05.10 | 29177 | 47561
3 | 10:34.12 | 3:30.20 | 47562 | 63331
4 | 14:04.32 | 2:26.55 | 63332 | 74336
5 | 16:31.12 | 6:21.45 | 74337 | 102956
6 | 22:52.57 | 3:20.35 | 102957 | 117991
7 | 26:13.17 | 2:56.18 | 117992 | 131209
8 | 29:09.35 | 4:43.42 | 131210 | 152476
9 | 33:53.02 | 2:13.50 | 152477 | 162501
10 | 36:06.52 | 4:53.65 | 162502 | 184541

Range status and errors

Selected range Filename H:\dafnaplus\The Rolling Stones - Beggar's Banquet\The Rolling Stones - Beggar's Banquet (POCD-1923).wav Peak level 93.1 %
Extraction speed 7.4 X
Range quality 100.0 %
Test CRC A336F7D1
Copy CRC A336F7D1
Copy OK

No errors occurred


AccurateRip summary

Track 1 accurately ripped (confidence 4) [11A3F244] (AR v1)
Track 2 accurately ripped (confidence 4) [D86D7B74] (AR v1)
Track 3 accurately ripped (confidence 4) [E8F5E940] (AR v1)
Track 4 accurately ripped (confidence 4) [C18AE4E4] (AR v1)
Track 5 accurately ripped (confidence 4) [CD4BDD44] (AR v1)
Track 6 accurately ripped (confidence 4) [2E68CE16] (AR v1)
Track 7 accurately ripped (confidence 4) [110F4744] (AR v1)
Track 8 accurately ripped (confidence 4) [C395962C] (AR v1)
Track 9 accurately ripped (confidence 4) [250AD4AF] (AR v1)
Track 10 accurately ripped (confidence 4) [179C1D19] (AR v1)

All tracks accurately ripped

End of status report

==== Log checksum A8ABF06972C1DEC5A5D65230FC8DD964B27C72B51F696EAB18F8925C4C523412 ====

foobar2000 1.2.9 / Dynamic Range Meter 1.1.1
log date: 2015-02-06 15:27:14

--
Analyzed: The Rolling Stones / Beggar's Banquet (POCD-1923)
--

DR Peak RMS Duration Track
--
DR10 -1.93 dB -13.96 dB 6:29 01-Sympathy for the Devil
DR11 -2.28 dB -16.02 dB 4:05 02-No Expectations
DR11 -0.62 dB -13.73 dB 3:30 03-Dear Doctor
DR9 -1.17 dB -13.36 dB 2:27 04-Parachute Woman
DR10 -1.51 dB -13.84 dB 6:22 05-Jig-Saw Puzzle
DR10 -2.23 dB -13.93 dB 3:20 06-Street Fighting Man
DR11 -1.79 dB -14.65 dB 2:56 07-Prodigal Son
DR9 -2.01 dB -14.10 dB 4:44 08-Stray Cat Blues
DR11 -1.45 dB -15.88 dB 2:14 09-Factory Girl
DR9 -1.12 dB -13.70 dB 4:54 10-Salt of the Earth
--

Number of tracks: 10
Official DR value: DR10

Samplerate: 44100 Hz
Channels: 2
Bits per sample: 16
Bitrate: 867 kbps
Codec: FLAC

[CUETools log; Date: 14.01.2014 22:01:39; Version: 2.1.5]
Pregap length 00:00:32.
[CTDB TOCID: zdtqJ8xTvhfCwGQrxK63Bn47Lz4-] found.
Track | CTDB Status
1 | (1/1) Accurately ripped
2 | (1/1) Accurately ripped
3 | (1/1) Accurately ripped
4 | (1/1) Accurately ripped
5 | (1/1) Accurately ripped
6 | (1/1) Accurately ripped
7 | (1/1) Accurately ripped
8 | (1/1) Accurately ripped
9 | (1/1) Accurately ripped
10 | (1/1) Accurately ripped
[AccurateRip ID: 00104488-007f5c66-8f099c0a] found.
Track [ CRC | V2 ] Status
01 [11a3f244|818b633d] (4+0/4) Accurately ripped
02 [d86d7b74|2b1e401f] (4+0/4) Accurately ripped
03 [e8f5e940|48f65e38] (4+0/4) Accurately ripped
04 [c18ae4e4|c647fce8] (4+0/4) Accurately ripped
05 [cd4bdd44|0d208aeb] (4+0/4) Accurately ripped
06 [2e68ce16|371e4940] (4+0/4) Accurately ripped
07 [110f4744|9bc89a9c] (4+0/4) Accurately ripped
08 [c395962c|b645d83a] (4+0/4) Accurately ripped
09 [250ad4af|5c34179d] (4+0/4) Accurately ripped
10 [179c1d19|090cc5d4] (4+0/4) Accurately ripped

Track Peak [ CRC32 ] [W/O NULL] [ LOG ]
-- 93,1 [A336F7D1] [3C2E70C4] CRC32
01 80,0 [97CE9990] [856FB48A]
02 76,9 [DC16A122] [24737732]
03 93,1 [9A6803C8] [C85BEA34]
04 87,4 [2CB6A95A] 77797D3
05 84,0 [FF50869B] [47637AA2]
06 77,3 [57ECA5BC] [2F3EC546]
07 81,3 [EE1A9665] [C5AA4AE6]
08 79,3 [D735CE15] [2851F701]
09 84,6 [5B452B32] [F1B8D08B]
10 87,9 [F40E9E99] [E57B232F]

The Rolling Stones - Beggar's Banquet (1968) [Polydor POCD-1923, Japan]

All thanks go to dafnaplus
DOWNLOAD LINKS:
Buy Premium From My Links To Get Resumable Support,Max Speed & Support Me


Links are Interchangeable - No Password - Single Extraction
Direct Download


Tags: Rolling, Stones, Beggar, Banquet, Polydor

The Rolling Stones - Beggar's Banquet (1968) [Polydor POCD-1923, Japan] Fast Download via Rapidshare Hotfile Fileserve Filesonic Megaupload, The Rolling Stones - Beggar's Banquet (1968) [Polydor POCD-1923, Japan] Torrents and Emule Download or anything related.
Dear visitor, you went to website as unregistered user.
We encourage you to Register or Login to website under your name.
Information
Members of Guest cannot leave comments.