Deutsche Harmonia Mundi - La Legende en 25 CDs: Frescobaldi, Purcell, Handel, Lassus (9-12)

Category: Music | Comment: 0

Download Now

Deutsche Harmonia Mundi - La Legende en 25 CDs: Frescobaldi, Purcell, Handel, Lassus (9-12)

Deutsche Harmonia Mundi - La Legende en 25 CDs: Frescobaldi, Purcell, Handel, Lassus (2013)
EAC Rip | FLAC, IMG+CUE, LOG | Covers | 4cd, 1170 MB
Classical | DHM | 88883-71923

" "deutsche harmonia mundi" ist eines der wichtigsten und ambitioniertesten Label für die authentische Interpretation und historische Aufführungspraxis. 2013 feiert das Label bereits sein 55-jähriges Bestehen.
Zu diesem Jubiläum erscheint nun eine hochwertige 25CD-Edition mit vielfach ausgezeichneten und von der Presse hochgelobten Aufnahmen sowie einem ausführlichen Einführungstext über die Anfänge und die Geschichte des Labels... "

CD9-CD10: Frescobaldi - Fiori Musicali
TT: 63'06+68'13
CD1: 01-21. Messa della Domenica
CD2: 01-23. Messa della Madonna
Canticum
Christoph Erkens, Leitungl direction

CD11: Purcell, Händel
TT: 68'48
01-10. Purcell - Dioclesian suite
11-15. Händel - Concerto grosso Op.6 No.6 g-Moll
16-26. Il duello amoroso, HWV 82
Nancy Argenta, soprano
Michael Chance, countertenor
Freiburger Barockorchester
Gottfried von der Goltz, Leitung

CD12: Lassus - Requiem à 5
TT: 60'01
01-08. Requiem à 5
09. O bone Jesu
10. Magnificat "Praeter rerum seriem"
11. Alma Redemptoris mater
12. Ave Maria
Ensemble Pro Cantione Antiqua
Bruno Turner, Leitung
Collegium Aureum
Bläserkreis für Alte Musik Hamburg

Exact Audio Copy V1.0 beta 3 from 29. August 2011

EAC extraction logfile from 19. February 2015, 10:56

Lorenzo Ghielmi, Christoph Erkens - Canticum / Frescobaldi - Messa della Madonna

Used drive : HL-DT-STDVDRAM GH24NS95 Adapter: 0 ID: 0

Read mode : Secure
Utilize accurate stream : Yes
Defeat audio cache : Yes
Make use of C2 pointers : No

Read offset correction : 6
Overread into Lead-In and Lead-Out : No
Fill up missing offset samples with silence : Yes
Delete leading and trailing silent blocks : No
Null samples used in CRC calculations : Yes
Used interface : Native Win32 interface for Win NT & 2000

Used output format : User Defined Encoder
Selected bitrate : 128 kBit/s
Quality : High
Add ID3 tag : No
Command line compressor : C:\Program Files (x86)\Exact Audio Copy\Flac\flac.exe
Additional command line options : -V -8 -T "Date=%year%" -T "Genre=%genre%" %source%

TOC of the extracted CD Track | Start | Length | Start sector | End sector
-----------
1 | 0:00.00 | 0:59.57 | 0 | 4481
2 | 0:59.57 | 5:34.15 | 4482 | 29546
3 | 6:33.72 | 3:18.65 | 29547 | 44461
4 | 9:52.62 | 1:45.73 | 44462 | 52409
5 | 11:38.60 | 5:47.40 | 52410 | 78474
6 | 17:26.25 | 2:31.62 | 78475 | 89861
7 | 19:58.12 | 1:24.48 | 89862 | 96209
8 | 21:22.60 | 3:31.55 | 96210 | 112089
9 | 24:54.40 | 1:22.10 | 112090 | 118249
10 | 26:16.50 | 0:56.65 | 118250 | 122514
11 | 27:13.40 | 3:04.65 | 122515 | 136379
12 | 30:18.30 | 0:28.55 | 136380 | 138534
13 | 30:47.10 | 5:05.00 | 138535 | 161409
14 | 35:52.10 | 0:46.02 | 161410 | 164861
15 | 36:38.12 | 3:14.55 | 164862 | 179466
16 | 39:52.67 | 3:48.25 | 179467 | 196591
17 | 43:41.17 | 5:30.55 | 196592 | 221396
18 | 49:11.72 | 1:17.28 | 221397 | 227199
19 | 50:29.25 | 5:10.30 | 227200 | 250479
20 | 55:39.55 | 6:12.32 | 250480 | 278411
21 | 61:52.12 | 0:31.68 | 278412 | 280804
22 | 62:24.05 | 1:28.67 | 280805 | 287471
23 | 63:52.72 | 4:21.23 | 287472 | 307069

Range status and errors

Selected range Filename C:\Program Files (x86)\Exact Audio Copy\Flac\Frescobaldi - Messa della Madonna.wav Suspicious position 0:50:15
Suspicious position 0:50:17
Suspicious position 0:50:23
Suspicious position 0:50:25
Suspicious position 0:50:36 - 0:50:37
Suspicious position 0:50:39 - 0:50:40 Peak level 91.3 %
Extraction speed 3.7 X
Range quality 99.7 %
Test CRC B754437E
Copy CRC 516E3A1D
Copy finished

There were errors


AccurateRip summary

Track 1 accurately ripped (confidence 9) [0A9626FE] (AR v2)
Track 2 accurately ripped (confidence 9) [F82CE273] (AR v2)
Track 3 accurately ripped (confidence 9) [21DF0F04] (AR v2)
Track 4 accurately ripped (confidence 9) [FB80EE53] (AR v2)
Track 5 accurately ripped (confidence 9) [692A924B] (AR v2)
Track 6 accurately ripped (confidence 9) [A79924E8] (AR v2)
Track 7 accurately ripped (confidence 9) 325898D (AR v2)
Track 8 accurately ripped (confidence 9) [8B8E478E] (AR v2)
Track 9 accurately ripped (confidence 9) [FCEA6310] (AR v2)
Track 10 accurately ripped (confidence 9) [A552F28C] (AR v2)
Track 11 accurately ripped (confidence 9) [5261954D] (AR v2)
Track 12 accurately ripped (confidence 9) [3D774245] (AR v2)
Track 13 accurately ripped (confidence 9) [026D6CB8] (AR v2)
Track 14 accurately ripped (confidence 9) [18934015] (AR v2)
Track 15 accurately ripped (confidence 9) [2E57403B] (AR v2)
Track 16 accurately ripped (confidence 9) [F0BB1234] (AR v2)
Track 17 accurately ripped (confidence 9) [5F54791F] (AR v2)
Track 18 cannot be verified as accurate (confidence 51) [F812E98E], AccurateRip returned [6CB4D269] (AR v2)
Track 19 cannot be verified as accurate (confidence 51) [6150CB6D], AccurateRip returned [6FD4FE68] (AR v2)
Track 20 accurately ripped (confidence 9) [EC5FD021] (AR v2)
Track 21 accurately ripped (confidence 9) [11C37D8F] (AR v2)
Track 22 accurately ripped (confidence 9) [1BCDEBEA] (AR v2)
Track 23 accurately ripped (confidence 9) [E0842518] (AR v2)

21 track(s) accurately ripped
2 track(s) could not be verified as accurate

Some tracks could not be verified as accurate

End of status report

==== Log checksum 05515C9AFDBE1A97B699C99B8946129C6CD8296CB9D3AD41E3D05B69761B0697 ====



Exact Audio Copy V1.0 beta 3 from 29. August 2011

EAC extraction logfile from 18. February 2015, 14:12

Canticum / Frescobaldi - Messa della Domenica

Used drive : HL-DT-STDVDRAM GH24NS95 Adapter: 0 ID: 0

Read mode : Secure
Utilize accurate stream : Yes
Defeat audio cache : Yes
Make use of C2 pointers : No

Read offset correction : 6
Overread into Lead-In and Lead-Out : No
Fill up missing offset samples with silence : Yes
Delete leading and trailing silent blocks : No
Null samples used in CRC calculations : Yes
Used interface : Native Win32 interface for Win NT & 2000

Used output format : User Defined Encoder
Selected bitrate : 128 kBit/s
Quality : High
Add ID3 tag : No
Command line compressor : C:\Program Files (x86)\Exact Audio Copy\Flac\flac.exe
Additional command line options : -V -8 -T "Date=%year%" -T "Genre=%genre%" %source%

TOC of the extracted CD Track | Start | Length | Start sector | End sector
-----------
1 | 0:00.00 | 1:13.40 | 0 | 5514
2 | 1:13.40 | 5:32.60 | 5515 | 30474
3 | 6:46.25 | 3:03.35 | 30475 | 44234
4 | 9:49.60 | 2:46.55 | 44235 | 56739
5 | 12:36.40 | 4:11.17 | 56740 | 75581
6 | 16:47.57 | 2:44.15 | 75582 | 87896
7 | 19:31.72 | 1:29.58 | 87897 | 94629
8 | 21:01.55 | 5:50.45 | 94630 | 120924
9 | 26:52.25 | 1:18.72 | 120925 | 126846
10 | 28:11.22 | 3:04.10 | 126847 | 140656
11 | 31:15.32 | 0:22.18 | 140657 | 142324
12 | 31:37.50 | 2:16.57 | 142325 | 152581
13 | 33:54.32 | 0:54.63 | 152582 | 156694
14 | 34:49.20 | 2:02.32 | 156695 | 165876
15 | 36:51.52 | 4:05.20 | 165877 | 184271
16 | 40:56.72 | 3:20.60 | 184272 | 199331
17 | 44:17.57 | 3:47.60 | 199332 | 216416
18 | 48:05.42 | 6:13.53 | 216417 | 244444
19 | 54:19.20 | 0:55.70 | 244445 | 248639
20 | 55:15.15 | 2:39.45 | 248640 | 260609
21 | 57:54.60 | 5:12.55 | 260610 | 284064

Range status and errors

Selected range Filename C:\Program Files (x86)\Exact Audio Copy\Flac\Frescobaldi - Messa della Domenica.wav Peak level 78.9 %
Extraction speed 7.3 X
Range quality 100.0 %
Test CRC C8E65F08
Copy CRC C8E65F08
Copy OK

No errors occurred


AccurateRip summary

Track 1 accurately ripped (confidence 11) [D4832943] (AR v2)
Track 2 accurately ripped (confidence 11) [C2C4EDF6] (AR v2)
Track 3 accurately ripped (confidence 11) [A6C514B5] (AR v2)
Track 4 accurately ripped (confidence 11) [2059C8DF] (AR v2)
Track 5 accurately ripped (confidence 11) F687FED (AR v2)
Track 6 accurately ripped (confidence 11) [78C7B503] (AR v2)
Track 7 accurately ripped (confidence 11) [0675E4A9] (AR v2)
Track 8 accurately ripped (confidence 11) [76717BB3] (AR v2)
Track 9 accurately ripped (confidence 11) [5ED04FD0] (AR v2)
Track 10 accurately ripped (confidence 11) [53B21ECF] (AR v2)
Track 11 accurately ripped (confidence 11) [8C2D32C7] (AR v2)
Track 12 accurately ripped (confidence 11) [D7D0417B] (AR v2)
Track 13 accurately ripped (confidence 11) [AEC5BD76] (AR v2)
Track 14 accurately ripped (confidence 11) [4D9E62CE] (AR v2)
Track 15 accurately ripped (confidence 10) [40C45BC7] (AR v2)
Track 16 accurately ripped (confidence 11) [3588CD8A] (AR v2)
Track 17 accurately ripped (confidence 11) [64896BDA] (AR v2)
Track 18 accurately ripped (confidence 11) [D8595CC9] (AR v2)
Track 19 accurately ripped (confidence 11) [9A5B75B5] (AR v2)
Track 20 accurately ripped (confidence 11) [767B22CF] (AR v2)
Track 21 accurately ripped (confidence 11) [15C7C16C] (AR v2)

All tracks accurately ripped

End of status report

==== Log checksum 048E80FBF77C5985A13F398FB4660569ACDEED1154F3DA704EAFEC80876EDB1A ====



Exact Audio Copy V1.0 beta 3 from 29. August 2011

EAC extraction logfile from 18. February 2015, 15:47

Freiburger Barockorchester, Nancy Argenta, Michael Chance / Purcel - Dioclesian suite, Handel -Concerto Grosso Op.6 No.6, Amarilli Vezzosa

Used drive : HL-DT-STDVDRAM GH24NS95 Adapter: 0 ID: 0

Read mode : Secure
Utilize accurate stream : Yes
Defeat audio cache : Yes
Make use of C2 pointers : No

Read offset correction : 6
Overread into Lead-In and Lead-Out : No
Fill up missing offset samples with silence : Yes
Delete leading and trailing silent blocks : No
Null samples used in CRC calculations : Yes
Used interface : Native Win32 interface for Win NT & 2000

Used output format : User Defined Encoder
Selected bitrate : 128 kBit/s
Quality : High
Add ID3 tag : No
Command line compressor : C:\Program Files (x86)\Exact Audio Copy\Flac\flac.exe
Additional command line options : -V -8 -T "Date=%year%" -T "Genre=%genre%" %source%

TOC of the extracted CD Track | Start | Length | Start sector | End sector
-----------
1 | 0:00.00 | 4:11.67 | 0 | 18891
2 | 4:11.67 | 3:06.53 | 18892 | 32894
3 | 7:18.45 | 2:14.42 | 32895 | 42986
4 | 9:33.12 | 3:45.73 | 42987 | 59934
5 | 13:19.10 | 4:16.47 | 59935 | 79181
6 | 17:35.57 | 1:46.40 | 79182 | 87171
7 | 19:22.22 | 3:34.15 | 87172 | 103236
8 | 22:56.37 | 2:28.55 | 103237 | 114391
9 | 25:25.17 | 2:24.25 | 114392 | 125216
10 | 27:49.42 | 4:11.50 | 125217 | 144091
11 | 32:01.17 | 2:54.33 | 144092 | 157174
12 | 34:55.50 | 1:35.12 | 157175 | 164311
13 | 36:30.62 | 4:55.15 | 164312 | 186451
14 | 41:26.02 | 2:42.28 | 186452 | 198629
15 | 44:08.30 | 2:10.45 | 198630 | 208424
16 | 46:19.00 | 2:28.35 | 208425 | 219559
17 | 48:47.35 | 0:30.00 | 219560 | 221809
18 | 49:17.35 | 3:50.15 | 221810 | 239074
19 | 53:07.50 | 0:33.42 | 239075 | 241591
20 | 53:41.17 | 3:28.53 | 241592 | 257244
21 | 57:09.70 | 0:46.35 | 257245 | 260729
22 | 57:56.30 | 2:04.57 | 260730 | 270086
23 | 60:01.12 | 0:29.68 | 270087 | 272329
24 | 60:31.05 | 4:33.60 | 272330 | 292864
25 | 65:04.65 | 1:41.72 | 292865 | 300511
26 | 66:46.62 | 2:02.30 | 300512 | 309691

Range status and errors

Selected range Filename C:\Program Files (x86)\Exact Audio Copy\Flac\Purcel - Dioclesian suite, Handel -Concerto Grosso Op.6 No.6, Amarilli Vezzosa.wav Peak level 96.2 %
Extraction speed 7.4 X
Range quality 100.0 %
Test CRC 0F5105C0
Copy CRC 0F5105C0
Copy OK

No errors occurred


AccurateRip summary

Track 1 accurately ripped (confidence 10) [323F6D45] (AR v2)
Track 2 accurately ripped (confidence 10) [417C4A55] (AR v2)
Track 3 accurately ripped (confidence 10) [89983825] (AR v2)
Track 4 accurately ripped (confidence 10) [ED18E889] (AR v2)
Track 5 accurately ripped (confidence 10) BE3CDD2 (AR v2)
Track 6 accurately ripped (confidence 10) [0A5845EA] (AR v2)
Track 7 accurately ripped (confidence 10) [F4BD58B3] (AR v2)
Track 8 accurately ripped (confidence 10) [A2C7BE26] (AR v2)
Track 9 accurately ripped (confidence 10) [6B0C964D] (AR v2)
Track 10 accurately ripped (confidence 10) [5394A321] (AR v2)
Track 11 accurately ripped (confidence 10) [9AAC726C] (AR v2)
Track 12 accurately ripped (confidence 10) [5964E131] (AR v2)
Track 13 accurately ripped (confidence 10) [32751403] (AR v2)
Track 14 accurately ripped (confidence 10) E6E7639 (AR v2)
Track 15 accurately ripped (confidence 10) [08C32281] (AR v2)
Track 16 accurately ripped (confidence 10) [4DE1ADC8] (AR v2)
Track 17 accurately ripped (confidence 10) [F8E10E2E] (AR v2)
Track 18 accurately ripped (confidence 10) [5DC6214F] (AR v2)
Track 19 accurately ripped (confidence 10) [5E3BDE9A] (AR v2)
Track 20 accurately ripped (confidence 10) [6D9FD955] (AR v2)
Track 21 accurately ripped (confidence 10) [AD19D85C] (AR v2)
Track 22 accurately ripped (confidence 10) [4B255BC7] (AR v2)
Track 23 accurately ripped (confidence 10) 1699BF7 (AR v2)
Track 24 accurately ripped (confidence 10) [9012EDB7] (AR v2)
Track 25 accurately ripped (confidence 10) [10926E08] (AR v2)
Track 26 accurately ripped (confidence 10) [CB02FE3A] (AR v2)

All tracks accurately ripped

End of status report

==== Log checksum B261B48086CBB0FBE573EA8E2710D605E00FCE999E43C2B1B3EEBC759D6806B3 ====

Exact Audio Copy V1.0 beta 3 from 29. August 2011

EAC extraction logfile from 18. February 2015, 17:22

Pro Cantione Antiqua / Lassus - Requiem à 5, Magnificat

Used drive : HL-DT-STDVDRAM GH24NS95 Adapter: 0 ID: 0

Read mode : Secure
Utilize accurate stream : Yes
Defeat audio cache : Yes
Make use of C2 pointers : No

Read offset correction : 6
Overread into Lead-In and Lead-Out : No
Fill up missing offset samples with silence : Yes
Delete leading and trailing silent blocks : No
Null samples used in CRC calculations : Yes
Used interface : Native Win32 interface for Win NT & 2000

Used output format : User Defined Encoder
Selected bitrate : 128 kBit/s
Quality : High
Add ID3 tag : No
Command line compressor : C:\Program Files (x86)\Exact Audio Copy\Flac\flac.exe
Additional command line options : -V -8 -T "Date=%year%" -T "Genre=%genre%" %source%

TOC of the extracted CD Track | Start | Length | Start sector | End sector
-----------
1 | 0:00.33 | 6:28.10 | 33 | 29142
2 | 6:28.43 | 3:20.47 | 29143 | 44189
3 | 9:49.15 | 3:27.08 | 44190 | 59722
4 | 13:16.23 | 4:55.55 | 59723 | 81902
5 | 18:12.03 | 6:53.00 | 81903 | 112877
6 | 25:05.03 | 3:35.40 | 112878 | 129042
7 | 28:40.43 | 3:32.52 | 129043 | 144994
8 | 32:13.20 | 2:59.05 | 144995 | 158424
9 | 35:12.25 | 3:51.63 | 158425 | 175812
10 | 39:04.13 | 13:45.65 | 175813 | 237752
11 | 52:50.03 | 4:17.07 | 237753 | 257034
12 | 57:07.10 | 2:43.23 | 257035 | 269282

Range status and errors

Selected range Filename C:\Program Files (x86)\Exact Audio Copy\Flac\Lassus - Requiem à 5, Magnificat.wav Peak level 93.4 %
Extraction speed 1.8 X
Range quality 100.0 %
Test CRC 37666F91
Copy CRC 37666F91
Copy OK

No errors occurred


AccurateRip summary

Track 1 accurately ripped (confidence 11) 2A0E1BC (AR v2)
Track 2 accurately ripped (confidence 11) [6168E024] (AR v2)
Track 3 accurately ripped (confidence 11) [D610A6D2] (AR v2)
Track 4 accurately ripped (confidence 11) [2AC59BBF] (AR v2)
Track 5 accurately ripped (confidence 11) [7264CB13] (AR v2)
Track 6 accurately ripped (confidence 11) [79A54E1F] (AR v2)
Track 7 accurately ripped (confidence 11) [F9C88856] (AR v2)
Track 8 accurately ripped (confidence 11) [1344E2B1] (AR v2)
Track 9 accurately ripped (confidence 11) [AD0B7357] (AR v2)
Track 10 accurately ripped (confidence 11) [FAF0FAC0] (AR v2)
Track 11 accurately ripped (confidence 10) [A6C024A4] (AR v2)
Track 12 accurately ripped (confidence 11) [D520FAFF] (AR v2)

All tracks accurately ripped

End of status report

==== Log checksum D878E404A6D569067D4798BC676A18371C18012C7C9BD5D86AA5C25A85BE72E7 ====
DOWNLOAD LINKS:
Buy Premium From My Links To Get Resumable Support,Max Speed & Support Me


Links are Interchangeable - No Password - Single Extraction
Direct Download


Tags: Deutsche, Harmonia, Legende, Frescobaldi, Purcell, Handel, Lassus

Deutsche Harmonia Mundi - La Legende en 25 CDs: Frescobaldi, Purcell, Handel, Lassus (9-12) Fast Download via Rapidshare Hotfile Fileserve Filesonic Megaupload, Deutsche Harmonia Mundi - La Legende en 25 CDs: Frescobaldi, Purcell, Handel, Lassus (9-12) Torrents and Emule Download or anything related.
Dear visitor, you went to website as unregistered user.
We encourage you to Register or Login to website under your name.
Information
Members of Guest cannot leave comments.