The Band - Music From Big Pink (1968) [2014, Universal Music Japan, UICY-40114]

Category: Music | Comment: 0

Download Now

The Band - Music From Big Pink (1968) [2014, Universal Music Japan, UICY-40114]

The Band - Music From Big Pink (1968)
EAC | Flac(Image) + Cue + Log & MP3 CBR 320Kbps
Universal Music Japan, UICY-40114 | ~ 261 or 117 Mb | Scans(png) -> 201 Mb
Blues Rock / Rock & Roll / Folk Rock / Country Rock

"None of the Band's previous work gave much of a clue about how they would sound when they released their first album in July 1968. As it was, Music from Big Pink came as a surprise..."

The Band - Music From Big Pink (1968):

The Band - Music From Big Pink (1968) [2014, Universal Music Japan, UICY-40114]

Tracklist:

01 Tears Of Rage
02 To Kingdom Come
03 In A Station
04 Caledonia Mission
05 The Weight
06 We Can Talk
07 Long Black Veil
08 Chest Fever
09 Lonesome Suzie
10 This Wheel's On Fire
11 I Shall Be Released

Exact Audio Copy V1.0 beta 4 from 7. December 2014

EAC extraction logfile from 25. February 2015, 17:41

The Band / Music From Big Pink PT-SHM

Used drive : PLEXTOR BD-R PX-B950SA Adapter: 1 ID: 1

Read mode : Secure
Utilize accurate stream : Yes
Defeat audio cache : Yes
Make use of C2 pointers : No

Read offset correction : 6
Overread into Lead-In and Lead-Out : No
Fill up missing offset samples with silence : Yes
Delete leading and trailing silent blocks : No
Null samples used in CRC calculations : Yes
Used interface
: Native Win32 interface for Win NT & 2000

Used output format : Internal WAV Routines
Sample format : 44.100 Hz; 16 Bit; Stereo

TOC of the extracted CD Track | Start | Length | Start sector | End sector
-----------
1 | 0:00.00 | 5:24.20 | 0 | 24319
2 | 5:24.20 | 3:22.40 | 24320 | 39509
3 | 8:46.60 | 3:34.38 | 39510 | 55597
4 | 12:21.23 | 2:59.12 | 55598 | 69034
5 | 15:20.35 | 4:38.45 | 69035 | 89929
6 | 19:59.05 | 3:06.10 | 89930 | 103889
7 | 23:05.15 | 3:05.65 | 103890 | 117829
8 | 26:11.05 | 5:18.50 | 117830 | 141729
9 | 31:29.55 | 4:04.08 | 141730 | 160037
10 | 35:33.63 | 3:14.00 | 160038 | 174587
11 | 38:47.63 | 3:14.05 | 174588 | 189142

Range status and errors

Selected range Filename C:\Users\Meijin\Desktop\ALLexxess\The Band\1968 Music From Big Pink (Mini LP PT-SHM Universal Japan 2015)\The Band - Music From Big Pink PT-SHM.wav Peak level 97.0 %
Extraction speed 6.5 X
Range quality 99.9 %
Test CRC 27EFF0BA
Copy CRC 27EFF0BA
Copy OK

No errors occurred


AccurateRip summary

Track 1 not present in database
Track 2 not present in database
Track 3 not present in database
Track 4 not present in database
Track 5 not present in database
Track 6 not present in database
Track 7 not present in database
Track 8 not present in database
Track 9 not present in database
Track 10 not present in database
Track 11 not present in database

None of the tracks are present in the AccurateRip database

End of status report

---- CUETools DB Plugin V2.1.4

[CTDB TOCID: nBFTJ4Xut44WTc3wWupRwsUycKU-] found
Submit result: nBFTJ4Xut44WTc3wWupRwsUycKU- has been confirmed
Track | CTDB Status
1 | (2/2) Accurately ripped
2 | (2/2) Accurately ripped
3 | (2/2) Accurately ripped
4 | (2/2) Accurately ripped
5 | (2/2) Accurately ripped
6 | (2/2) Accurately ripped
7 | (2/2) Accurately ripped
8 | (2/2) Accurately ripped
9 | (2/2) Accurately ripped
10 | (2/2) Accurately ripped
11 | (2/2) Accurately ripped

==== Log checksum 87757B27E23E602788B3DEB43609ADC651DF12B12A7B212C9117167186218FAA ====

foobar2000 1.2.9 / Dynamic Range Meter 1.1.1
log date: 2015-02-27 12:50:23

--
Analyzed: The Band / Music From Big Pink PT-SHM
--

DR Peak RMS Duration Track
--
DR12 -2.40 dB -18.74 dB 5:24 01-Tears Of Rage
DR14 -0.68 dB -18.43 dB 3:23 02-To Kingdom Come
DR13 -3.18 dB -17.95 dB 3:35 03-In A Station
DR11 -3.08 dB -18.46 dB 2:59 04-Caledonia Mission
DR15 -1.19 dB -19.97 dB 4:39 05-The Weight
DR13 -2.36 dB -17.75 dB 3:06 06-We Can Talk
DR13 -0.75 dB -15.56 dB 3:06 07-Long Black Veil
DR13 -0.26 dB -16.70 dB 5:19 08-Chest Fever
DR11 -1.96 dB -15.89 dB 4:04 09-Lonesome Suzie
DR13 -1.58 dB -17.70 dB 3:14 10-This Wheel's On Fire
DR12 -2.95 dB -17.49 dB 3:14 11-I Shall Be Relased
--

Number of tracks: 11
Official DR value: DR13

Samplerate: 44100 Hz
Channels: 2
Bits per sample: 16
Bitrate: 769 kbps
Codec: FLAC

[CUETools log; Date: 27.02.2015 12:44:28; Version: 2.1.4]
[CTDB TOCID: nBFTJ4Xut44WTc3wWupRwsUycKU-] found.
Track | CTDB Status
1 | (3/3) Accurately ripped
2 | (3/3) Accurately ripped
3 | (3/3) Accurately ripped
4 | (3/3) Accurately ripped
5 | (3/3) Accurately ripped
6 | (3/3) Accurately ripped
7 | (3/3) Accurately ripped
8 | (3/3) Accurately ripped
9 | (3/3) Accurately ripped
10 | (3/3) Accurately ripped
11 | (3/3) Accurately ripped
[AccurateRip ID: 0011c92c-0098bed2-8c09d90b] disk not present in database.

Track Peak [ CRC32 ] [W/O NULL] [ LOG ]
-- 97,0 [27EFF0BA] [DF1D5B52] CRC32
01 75,8 [4EB073A2] [8D2D5B9A]
02 92,4 35395BA [304963BB]
03 69,3 [0CA688B6] [2C236A5F]
04 70,1 [EA94B5DA] [81810027]
05 87,2 [1FBFB8EF] [6536B220]
06 76,2 [6CDDF207] [350DAEEB]
07 91,7 [E8E92FE8] [ACA56FED]
08 97,0 [A1D4FCE4] [AA6EE5C8]
09 79,8 [C5764179] [FBE4879B]
10 83,3 [169D346A] [A4AFB949]
11 71,1 B5D6224 [A17066E5]

The Band - Music From Big Pink (1968) [2014, Universal Music Japan, UICY-40114]

All thanks go to ALLexxess

Download The Band - Music From Big Pink (1968):

|

DOWNLOAD LINKS:
Buy Premium From My Links To Get Resumable Support,Max Speed & Support Me


Links are Interchangeable - No Password - Single Extraction
Direct Download


Tags: Universal

The Band - Music From Big Pink (1968) [2014, Universal Music Japan, UICY-40114] Fast Download via Rapidshare Hotfile Fileserve Filesonic Megaupload, The Band - Music From Big Pink (1968) [2014, Universal Music Japan, UICY-40114] Torrents and Emule Download or anything related.
Dear visitor, you went to website as unregistered user.
We encourage you to Register or Login to website under your name.
Information
Members of Guest cannot leave comments.