Aleck Karis - Piano Music of Philip Glass (2000)

Category: Music | Comment: 0

Download Now

Aleck Karis - Piano Music of Philip Glass (2000)

Aleck Karis - Piano Music of Philip Glass (2000)
EAC | FLAC | Image (Cue&Log) ~ 226 Mb (incl 5%) | Mp3 (CBR320) ~ 179 Mb (incl 5%) | Scans included
Genre: Classical, Minimalism | Label: Roméo Records | # 7204 | Time: 01:03:09

"This CD presents several piano works by Philip Glass, played with grace and enthusiasm by Aleck Karis. Wichita Vortex Sutra (1988) was inspired by the poem of the same title by Allen Ginsburg from 1966, which alternates between images of a road across the U.S. and a protest against the war in Vietnam. The basis of the music is a simple Protestant-like hymn tune with chromatic passing tones. This is treated to rhythmic syncopation and, at other times, is surrounded by quickly arpeggiated patterns. The Metamorphosis (1988), with the title from Kafka's famous work, is in five movements. Each movement has simple melodies and a simple set of chords, usually four in number, with chromatic changes between them. These "changes" happen through the addition of a chord or other simple alteration. The pieces are moved along to the accompaniment of a plain two-note rotating figure. In Mad Rush (1981), various doublings and polyrhythms are superimposed and then subtracted at various points, which gives a rushing or slowing effect without any actual change in tempo."



Tracklist:

01. Wichita Vortex Sutra (07:12)
02. Metamorphosis One (05:55)
03. Metamorphosis Two (07:23)
04. Metamorphosis Three (05:42)
05. Metamorphosis Four (06:57)
06. Metamorphosis Five (05:10)
07. Mad Rush (15:41)
08. Opening (05:11)
09. Modern Love Waltz (03:54)


Exact Audio Copy V1.0 beta 1 from 15. November 2010

EAC extraction logfile from 9. September 2011, 20:30

Aleck Karis / Piano Music of Philip Glass

Used drive : Optiarc DVD RW AD-7203A Adapter: 4 ID: 1

Read mode : Secure
Utilize accurate stream : Yes
Defeat audio cache : Yes
Make use of C2 pointers : No

Read offset correction

: 48
Overread into Lead-In and Lead-Out : No
Fill up missing offset samples with silence : Yes
Delete leading and trailing silent blocks : No
Null samples used in CRC calculations : Yes
Used interface
: Native Win32 interface for Win NT & 2000

Used output format : User Defined Encoder
Selected bitrate : 128 kBit/s
Quality : High
Add ID3 tag : No
Command line compressor : C:\Program Files\FLAC\flac.exe
Additional command line options : -T "COMMENT=Ripped by GFox" -8 -V %s

TOC of the extracted CD Track | Start | Length | Start sector | End sector
-----------1 | 0:00.00 | 7:12.13 | 0 | 32412 2 | 7:12.13 | 5:55.08 | 32413 | 59045 3 | 13:07.21 | 7:23.68 | 59046 | 92338 4 | 20:31.14 | 5:42.51 | 92339 | 118039 5 | 26:13.65 | 6:57.64 | 118040 | 149378 6 | 33:11.54 | 5:10.19 | 149379 | 172647 7 | 38:21.73 | 15:41.51 | 172648 | 243273 8 | 54:03.49 | 5:11.31 | 243274 | 266629 9 | 59:15.05 | 3:54.24 | 266630 | 284203

Range status and errors

Selected range Filename D:\EAC\Aleck Karis - Piano Music of Philip Glass.wav Peak level 84.9 %
Extraction speed 0.1 X
Range quality 100.0 %
Test CRC 283F68DF
Copy CRC 283F68DF
Copy OK

No errors occurred


AccurateRip summary

Track 1 accurately ripped (confidence 1) [313A3F0A]
Track 2 accurately ripped (confidence 1) [139E28E0]
Track 3 accurately ripped (confidence 1) [1EBE8D38]
Track 4 accurately ripped (confidence 1) [2F7D67CC]
Track 5 accurately ripped (confidence 1) [3FF7DE3B]
Track 6 accurately ripped (confidence 1) [3E0C5E5F]
Track 7 cannot be verified as accurate (confidence 1) [9A727281], AccurateRip returned [0745D6B0]
Track 8 cannot be verified as accurate (confidence 1) [90EC24DB], AccurateRip returned F1D5F03
Track 9 cannot be verified as accurate (confidence 1) [9E228524], AccurateRip returned A5846EE

6 track(s) accurately ripped
3 track(s) could not be verified as accurate

Some tracks could not be verified as accurate

End of status report

==== Log checksum CFF050A4E8F0E66635953CCF42EA942A2C561E6EA8D31B110DDDE290A55DFC30 ====

foobar2000 1.2 / Dynamic Range Meter 1.1.1
log date: 2015-03-31 13:43:32

--
Analyzed: Aleck Karis / Piano Music of Philip Glass
--

DR Peak RMS Duration Track
--
DR11 -1.42 dB -18.25 dB 7:12 01-Wichita Vortex Sutra
DR13 -6.98 dB -25.91 dB 5:55 02-Metamorphosis One
DR12 -5.34 dB -23.50 dB 7:24 03-Metamorphosis Two
DR11 -4.16 dB -19.57 dB 5:43 04-Metamorphosis Three
DR11 -1.62 dB -18.15 dB 6:58 05-Metamorphosis Four
DR13 -7.17 dB -25.35 dB 5:10 06-Metamorphosis Five
DR11 -3.64 dB -19.41 dB 15:42 07-Mad Rush
DR10 -5.34 dB -18.37 dB 5:11 08-Opening
DR12 -4.50 dB -21.93 dB 3:54 09-Modern Love Waltz
--

Number of tracks: 9
Official DR value: DR12

Samplerate: 44100 Hz
Channels: 2
Bits per sample: 16
Bitrate: 417 kbps
Codec: FLAC

Aleck Karis - Piano Music of Philip Glass (2000)

DOWNLOAD LINKS:
Buy Premium To Support Me & Get Resumable Support & Max Speed


Links are Interchangeable - No Password - Single Extraction
Direct Download


Tags: Philip

Aleck Karis - Piano Music of Philip Glass (2000) Fast Download via Rapidshare Hotfile Fileserve Filesonic Megaupload, Aleck Karis - Piano Music of Philip Glass (2000) Torrents and Emule Download or anything related.
Dear visitor, you went to website as unregistered user.
We encourage you to Register or Login to website under your name.
Information
Members of Guest cannot leave comments.