Klezmerson & John Zorn - Amon: Book Of Angels Volume 24 (2015) {Tzadik}

Category: Music | Comment: 0

Download Now


Klezmerson & John Zorn - Amon: Book Of Angels Volume 24 (2015) {Tzadik}
Klezmerson & John Zorn - Amon: Book Of Angels Volume 24 (2015) {Tzadik}
EAC rip (secure mode) | FLAC (tracks)+CUE+LOG -> 264 Mb | MP3 @320 -> 103 Mb
Full Artwork @ 600 dpi (png) -> 171 Mb | 5% repair rar
© 2015 Tzadik | TZ 8328 | Tzadik Archival Series
Jazz / International Jazz

"Get ready to be blown out of your seat! Klezmerson has created one of the most astonishing installments of the entire Angels series-a spectacular reading of Masada material drawing upon the rich tradition of Mexican music from Oaxaca to Veracruz. Touching upon Henry Mancini, Xavier Cugat, psyche- delia and so much more, this is without doubt one of the wildest, most creative, flamboyant and masterful readings of Masada material since the Secret Chiefs 3. The work of a maestro in total control of his craft, Amon takes Masada to unimagined places! Essential."

Klezmerson & John Zorn - Amon: Book Of Angels Volume 24 (2015) {Tzadik}


Personnel:
Moises Garcia: Trumpet
Chatran Gonzalez: Percussion
Juan Manuel Ledezma: Guitar, Requinto, Leona
Osiris Caballero Leon: Violin, Jarana
Carina Lopez: Bass
Maria Emilia Martinez: Flute
Chali Mercado: Drums
Rolando Morejon: Violin
Gustavo Nandayapa: Drums, Percussion
Alex Otaola: Guitar
Natalia Perez: Cello
Marco Renteria: Bass
Homero Santiago: Trombone
Rodrigo Santoyo: Oud
Benjamin Shwartz: Viola, Piano, Organ, Jaranas
Dan Zlotnik: Saxophones, Clarinet

tracklist:
01 - Samchia
02 - Iahmel
03 - Abachta
04 - Yefefiah
05 - Mashith
06 - Sehibiel
07 - Zikiel
08 - Kabshiel
09 - Amabiel

Exact Audio Copy V1.0 beta 4 from 7. December 2014

EAC extraction logfile from 8. April 2015, 21:57

Klezmerson / Amon: Book Of Angels Volume 24

Used drive : TSSTcorpCDDVDW SE-208DB Adapter: 1 ID: 1

Read mode : Secure
Utilize accurate stream : Yes
Defeat audio cache : Yes
Make use of C2 pointers : No

Read offset correction

: 6
Overread into Lead-In and Lead-Out : No
Fill up missing offset samples with silence : Yes
Delete leading and trailing silent blocks : No
Null samples used in CRC calculations : Yes
Used interface
: Native Win32 interface for Win NT & 2000
Gap handling
: Appended to previous track

Used output format : User Defined Encoder
Selected bitrate : 1024 kBit/s
Quality : High
Add ID3 tag : No
Command line compressor : C:\Program Files (x86)\FLAC Frontend\tools\flac.exe
Additional command line options : -8 -V -T "ARTIST=%artist%" -T "TITLE=%title%" -T "ALBUM=%albumtitle%" -T "DATE=%year%" -T "TRACKNUMBER=%tracknr%" -T "TOTALTRACKS=%numtracks%" -T "GENRE=%genre%" -T "ALBUMARTIST=%albumartist%" -T "ALBUM ARTIST=%albumartist%" -T "COMMENT=EAC Secure Mode, Test & Copy, AccurateRip, FLAC -8" %source%

TOC of the extracted CD Track | Start | Length | Start sector | End sector
-----------1 | 0:00.00 | 4:09.62 | 0 | 18736 2 | 4:09.62 | 4:25.46 | 18737 | 38657 3 | 8:35.33 | 5:24.32 | 38658 | 62989 4 | 13:59.65 | 5:41.63 | 62990 | 88627 5 | 19:41.53 | 4:52.71 | 88628 | 110598 6 | 24:34.49 | 3:43.42 | 110599 | 127365 7 | 28:18.16 | 5:32.08 | 127366 | 152273 8 | 33:50.24 | 2:56.24 | 152274 | 165497 9 | 36:46.48 | 6:39.56 | 165498 | 195478

Track 1 Filename D:\_EAC\Klezmerson & John Zorn - Amon - Book Of Angels Volume 24 (2015) [FLAC] {Tzadik}\01 - Samchia.wav Pre-gap length 0:00:02.00 Peak level 98.9 %
Extraction speed 1.0 X
Track quality 100.0 %
Test CRC C1DFB2ED
Copy CRC C1DFB2ED
Track not present in AccurateRip database
Copy OK

Track 2 Filename D:\_EAC\Klezmerson & John Zorn - Amon - Book Of Angels Volume 24 (2015) [FLAC] {Tzadik}\02 - Iahmel.wav Peak level 97.2 %
Extraction speed 1.0 X
Track quality 99.9 %
Test CRC C20F8E2E
Copy CRC C20F8E2E
Track not present in AccurateRip database
Copy OK

Track 3 Filename D:\_EAC\Klezmerson & John Zorn - Amon - Book Of Angels Volume 24 (2015) [FLAC] {Tzadik}\03 - Abachta.wav Peak level 100.0 %
Extraction speed 1.3 X
Track quality 100.0 %
Test CRC F2BD54F5
Copy CRC F2BD54F5
Track not present in AccurateRip database
Copy OK

Track 4 Filename D:\_EAC\Klezmerson & John Zorn - Amon - Book Of Angels Volume 24 (2015) [FLAC] {Tzadik}\04 - Yefefiah.wav Peak level 99.3 %
Extraction speed 1.4 X
Track quality 100.0 %
Test CRC C2A9C623
Copy CRC C2A9C623
Track not present in AccurateRip database
Copy OK

Track 5 Filename D:\_EAC\Klezmerson & John Zorn - Amon - Book Of Angels Volume 24 (2015) [FLAC] {Tzadik}\05 - Mashith.wav Peak level 97.8 %
Extraction speed 1.4 X
Track quality 100.0 %
Test CRC 57D6A8D0
Copy CRC 57D6A8D0
Track not present in AccurateRip database
Copy OK

Track 6 Filename D:\_EAC\Klezmerson & John Zorn - Amon - Book Of Angels Volume 24 (2015) [FLAC] {Tzadik}\06 - Sehibiel.wav Peak level 81.0 %
Extraction speed 1.5 X
Track quality 100.0 %
Test CRC 6D538ACB
Copy CRC 6D538ACB
Track not present in AccurateRip database
Copy OK

Track 7 Filename D:\_EAC\Klezmerson & John Zorn - Amon - Book Of Angels Volume 24 (2015) [FLAC] {Tzadik}\07 - Zikiel.wav Peak level 98.7 %
Extraction speed 1.6 X
Track quality 100.0 %
Test CRC 4D9562FA
Copy CRC 4D9562FA
Track not present in AccurateRip database
Copy OK

Track 8 Filename D:\_EAC\Klezmerson & John Zorn - Amon - Book Of Angels Volume 24 (2015) [FLAC] {Tzadik}\08 - Kabshiel.wav Peak level 97.1 %
Extraction speed 1.5 X
Track quality 100.0 %
Test CRC E27B7C29
Copy CRC E27B7C29
Track not present in AccurateRip database
Copy OK

Track 9 Filename D:\_EAC\Klezmerson & John Zorn - Amon - Book Of Angels Volume 24 (2015) [FLAC] {Tzadik}\09 - Amabiel.wav Peak level 99.3 %
Extraction speed 1.6 X
Track quality 99.9 %
Test CRC 573B3EDF
Copy CRC 573B3EDF
Track not present in AccurateRip database
Copy OK

None of the tracks are present in the AccurateRip database

No errors occurred

End of status report

==== Log checksum 012741625C2DE4AD8093212EBE4E1A13FD384592B1370FE78717640E9E91F34D ====

Klezmerson & John Zorn - Amon: Book Of Angels Volume 24 (2015) {Tzadik}

Klezmerson & John Zorn - Amon: Book Of Angels Volume 24 (2015) {Tzadik}



DOWNLOAD LINKS:
Buy Premium To Support Me & Get Resumable Support & Max Speed


Links are Interchangeable - No Password - Single Extraction
Direct Download


Tags: Klezmerson, Angels, Tzadik

Klezmerson & John Zorn - Amon: Book Of Angels Volume 24 (2015) {Tzadik} Fast Download via Rapidshare Hotfile Fileserve Filesonic Megaupload, Klezmerson & John Zorn - Amon: Book Of Angels Volume 24 (2015) {Tzadik} Torrents and Emule Download or anything related.
Dear visitor, you went to website as unregistered user.
We encourage you to Register or Login to website under your name.
Information
Members of Guest cannot leave comments.