Ike Quebec - Bossa Nova Soul Samba (1962) [RVG Edition, 2007]

Category: Music | Comment: 0

Download Now

Ike Quebec - Bossa Nova Soul Samba (1962) [RVG Edition, 2007]

Ike Quebec - Bossa Nova Soul Samba (1962) [RVG Edition, 2007]
EAC Rip | FLAC: Image+Cue+Log | 263 Mb | MP3 CBR 320 kbps | 113 Mb | Time: 48:10
Genre: Jazz, Bossa Nova, Latin Jazz | Label: Blue Note/Capitol | Cat.№: 0946 3 92783 2 9

"Soul Samba (aka Bossa Nova Soul Samba) is an album by American saxophonist Ike Quebec recorded in 1962 and released on the Blue Note label. It was Quebec's final recording before his death in January 1963. Though not as well known as giants Ben Webster and Don Byas, the late Ike Quebec was a major stylist whose specialty was the big-toned, cozy, breathy, romantic tenor saxophone. Quebec made a series of soul-jazz sessions for Blue Note, as well as this 1962 rarity on which he had a go at the au courant bossa nova sound. Accompanied by the burnished guitar of Kenny Burrell and the Latin spice of Willie Bobo, Quebec brings his emotive approach to the sly, cool expression that is bossa nova. The contrast is exhilarating, making for a pleasant surprise for fans of the Brazilian style as well as for Quebec fans accustomed to his usual bluesy groove. This 2007 remastered edition includes three alternate takes."



Track Listing

01. Loie (03:10)
02. Lloro Tu Despedida (03:01)
03. Goin' Home (05:41)
04. Me 'n You (05:59)
05. Liebestraum (03:42)
06. Shu Shu (03:32)
07. Blue Samba (05:17)
08. Favela (04:00)
09. Linda Fior (03:29)
bonus tracks
10. Loie (alternate take) (03:33)
11. Shu Shu (alternate take) (03:20)
12. Favela (alternate take) (03:21)

Produced by Alfred Lion
Reissue produced by Michael Cuscuna

Musicians

* Ike Quebec - tenor saxophone
* Kenny Burrell - guitar
* Wendell Marshall - bass
* Willie Bobo - drums
* Garvin Masseaux - chekere

Notes

Remastered in 2007 by Rudy Van Gelder

Blue Note Records: RVG Edition

Recorded at the Van Gelder Studio, Englewood Cliffs, New Jersey on October 5, 1962
#10 to 12: Bonus tracks, not part of original LP.

Tracks 1-9 originally issued in 1962 as Blue Note BST84114.
Tracks 10-12 originally issued in 1996 on the first CD issue of this album.

Made in E.U.
℗ & © 2007 The Blue Note Label Group. Blue Note Records ® is a registered trademark of Capitol Records, Inc.

All transfers from the analog tapes to digital were made at 24-bit resolution.

Exact Audio Copy V0.99 prebeta 4 from 23. January 2008

EAC extraction logfile from 6. December 2008, 17:45

Ike Quebec / Boss Nova Soul Samba

Used drive : ASUS DRW-1814BLT Adapter: 3 ID: 1

Read mode : Secure
Utilize accurate stream : Yes
Defeat audio cache : Yes
Make use of C2 pointers : No

Read offset correction

: 6
Overread into Lead-In and Lead-Out : No
Fill up missing offset samples with silence : Yes
Delete leading and trailing silent blocks : No
Null samples used in CRC calculations : No
Used interface
: Native Win32 interface for Win NT & 2000

Used output format : User Defined Encoder
Selected bitrate : 1024 kBit/s
Quality : High
Add ID3 tag : Yes
Command line compressor : C:\Program Files\Exact Audio Copy\FLAC\FLAC.EXE
Additional command line options : -6 -V -T "ARTIST=%a" -T "TITLE=%t" -T "ALBUM=%g" -T "DATE=%y" -T "TRACKNUMBER=%n" -T "GENRE=%m" -T "COMMENT=%e" %s -o %d

TOC of the extracted CD Track | Start | Length | Start sector | End sector
1 | 0:00.00 | 3:10.60 | 0 | 14309 2 | 3:10.60 | 3:01.47 | 14310 | 27931 3 | 6:12.32 | 5:41.21 | 27932 | 53527 4 | 11:53.53 | 5:59.25 | 53528 | 80477 5 | 17:53.03 | 3:42.39 | 80478 | 97166 6 | 21:35.42 | 3:32.00 | 97167 | 113066 7 | 25:07.42 | 5:17.42 | 113067 | 136883 8 | 30:25.09 | 4:00.20 | 136884 | 154903 9 | 34:25.29 | 3:29.07 | 154904 | 170585
10 | 37:54.36 | 3:33.18 | 170586 | 186578
11 | 41:27.54 | 3:20.06 | 186579 | 201584
12 | 44:47.60 | 3:21.46 | 201585 | 216705

Range status and errors

Selected range Filename C:\Documents and Settings\Ike Quebec - Boss Nova Soul Samba.wav Peak level 97.9 %
Range quality 100.0 %
Copy CRC 0714ED1B
Copy OK

No errors occurred


AccurateRip summary

Track 1 accurately ripped (confidence 3) [C11F45F8]
Track 2 accurately ripped (confidence 3) [67B67C90]
Track 3 accurately ripped (confidence 3) [35CA7D57]
Track 4 accurately ripped (confidence 3) [037EC75B]
Track 5 accurately ripped (confidence 3) [330F609C]
Track 6 accurately ripped (confidence 3) [CE1A95E2]
Track 7 accurately ripped (confidence 3) [44FB785B]
Track 8 accurately ripped (confidence 3) [2087AFB8]
Track 9 accurately ripped (confidence 3) [9E0CC7D7]
Track 10 accurately ripped (confidence 3) [EACBD999]
Track 11 accurately ripped (confidence 3) [13139A9C]
Track 12 accurately ripped (confidence 3) [F44BEF5A]

All tracks accurately ripped

End of status report

Many thanks to the original uploader: hsukurt

A series of Blue Note albums originally recorded and later remastered by veteran jazz engineer Rudy Van Gelder.
DOWNLOAD LINKS:
Buy Premium To Support Me & Get Resumable Support & Max Speed


Links are Interchangeable - No Password - Single Extraction
Direct Download


Tags: Quebec

Ike Quebec - Bossa Nova Soul Samba (1962) [RVG Edition, 2007] Fast Download via Rapidshare Hotfile Fileserve Filesonic Megaupload, Ike Quebec - Bossa Nova Soul Samba (1962) [RVG Edition, 2007] Torrents and Emule Download or anything related.
Dear visitor, you went to website as unregistered user.
We encourage you to Register or Login to website under your name.
Information
Members of Guest cannot leave comments.