V.A. - Classic Rock presents Prog: Prognosis 18-19 (2011)

Category: Music | Comment: 0

Download Now

V.A. - Classic Rock presents Prog: Prognosis 18-19 (2011)

V.A. - Classic Rock presents Prog: Prognosis 18-19 (2011)
EAC Rip | FLAC (tracks+.cue+log) - 860 MB | MP3 CBR 320 kbps (LAME 3.93) - 326 MB | Covers included
Genre: Progressive Rock | RAR 3% Rec. | Label: Future

"A spinoff of its parent magazine, Classic Rock Presents Prog takes a look at progressive music and the artists who weave them together. Each issue takes a soul-searching foray into the hearts and minds of the heroes of rock, reviewing both new and old releases. Building upon the history of some of the most genre-defining pieces ever devised and those who followed who continue to refine, revolutionise and completely discard the formulas of those who came before. Reflecting on the proud genesis of this unexpected genre, Classic Rock Presents Prog is an able tutor for those in the dark about the evolution of progressive music, and a tonic for existing fans."

V.A. - Classic Rock presents Prog: Prognosis 18-19 (2011)

V.A. - Classic Rock presents Prog: Prognosis 18 (2011)
EAC Rip | FLAC (tracks+.cue+log) - 442 MB | MP3 CBR 320 kbps (LAME 3.93) - 165 MB | Covers (11 MB) included
Genre: Progressive Rock | RAR 3% Rec. | Label: Future (ROP18CD-08-11)

Tracklist:
01. Big Big Train - Kingmaker
02. Nektar - Desolation Valley
03. CCLR - Morning Comes
04. Comedy Of Errors - The Student Prince (Part 1)
05. Motorpsycho - Wishing Well
06. Phi Yaan-Zek - Adventures In Myth/Ecstasies Of The Starlight Self
07. Scale The Summit - Gallows
08. Spirits Burning - Internal Detective
09. Atrium - Like You

Total time: 01:05:18

Exact Audio Copy V1.0 beta 3 from 29. August 2011

EAC extraction logfile from 27. March 2013, 20:46

VA / Classic Rock presents Prog: Prognosis 18

Used drive : ATAPI iHAS120 X Adapter: 6 ID: 0

Read mode : Secure
Utilize accurate stream : Yes
Defeat audio cache : Yes
Make use of C2 pointers : No

Read offset correction

: 48
Overread into Lead-In and Lead-Out : No
Fill up missing offset samples with silence : Yes
Delete leading and trailing silent blocks : No
Null samples used in CRC calculations : Yes
Used interface
: Native Win32 interface for Win NT & 2000
Gap handling
: Appended to previous track

Used output format : User Defined Encoder
Selected bitrate : 128 kBit/s
Quality : High
Add ID3 tag : No
Command line compressor : C:\Program Files\Exact Audio Copy\Flac\flac.exe
Additional command line options : -V -8 -T "Genre=%genre%" -T "Artist=%artist%" -T "Title=%title%" -T "Album=%albumtitle%" -T "Date=%year%" -T "Tracknumber=%tracknr%" -T "Comment=%comment%" %source%

TOC of the extracted CD Track | Start | Length | Start sector | End sector
1 | 0:00.00 | 10:36.00 | 0 | 47699 2 | 10:36.00 | 8:14.22 | 47700 | 84771 3 | 18:50.22 | 6:35.34 | 84772 | 114430 4 | 25:25.56 | 9:13.52 | 114431 | 155957 5 | 34:39.33 | 7:28.13 | 155958 | 189570 6 | 42:07.46 | 5:26.06 | 189571 | 214026 7 | 47:33.52 | 4:35.54 | 214027 | 234705 8 | 52:09.31 | 4:25.27 | 234706 | 254607 9 | 56:34.58 | 8:43.21 | 254608 | 293853
10 | 67:50.04 | 4:17.34 | 305254 | 324562

Track 1 Filename D:\what.cd\Classic Rock presents Prog- Prognosis 18\01. Big Big Train - Kingmaker.wav Pre-gap length 0:00:02.00 Peak level 99.6 %
Extraction speed 2.9 X
Track quality 100.0 %
Test CRC C19906A1
Copy CRC C19906A1
Accurately ripped (confidence 2) [AEF904D5] (AR v2)
Copy OK

Track 2 Filename D:\what.cd\Classic Rock presents Prog- Prognosis 18\02. Nektar - Desolation Valley.wav Pre-gap length 0:00:02.00 Peak level 98.8 %
Extraction speed 3.4 X
Track quality 100.0 %
Test CRC 4FAA2783
Copy CRC 4FAA2783
Accurately ripped (confidence 3) [82CC2BAD] (AR v2)
Copy OK

Track 3 Filename D:\what.cd\Classic Rock presents Prog- Prognosis 18\03. CCLR - Morning Comes.wav Pre-gap length 0:00:02.00 Peak level 100.0 %
Extraction speed 3.7 X
Track quality 100.0 %
Test CRC F1A5FF73
Copy CRC F1A5FF73
Accurately ripped (confidence 3) [2C84670A] (AR v2)
Copy OK

Track 4 Filename D:\what.cd\Classic Rock presents Prog- Prognosis 18\04. Comedy of Errors - The Student Prince (Part 1).wav Pre-gap length 0:00:02.00 Peak level 99.4 %
Extraction speed 4.1 X
Track quality 100.0 %
Test CRC A11F1D76
Copy CRC A11F1D76
Accurately ripped (confidence 3) 9B23947 (AR v2)
Copy OK

Track 5 Filename D:\what.cd\Classic Rock presents Prog- Prognosis 18\05. Motorpsycho - Wishing Well.wav Pre-gap length 0:00:02.00 Peak level 96.8 %
Extraction speed 4.1 X
Track quality 99.9 %
Test CRC ED375250
Copy CRC ED375250
Accurately ripped (confidence 3) [63044888] (AR v2)
Copy OK

Track 6 Filename D:\what.cd\Classic Rock presents Prog- Prognosis 18\06. Phi Yaan-Zek - Adventures in Myth,Ecstasies of the Starlight Self.wav Pre-gap length 0:00:02.00 Peak level 97.9 %
Extraction speed 4.5 X
Track quality 100.0 %
Test CRC 6082BB0B
Copy CRC 6082BB0B
Accurately ripped (confidence 3) [5A3F4126] (AR v2)
Copy OK

Track 7 Filename D:\what.cd\Classic Rock presents Prog- Prognosis 18\07. Scale the Summit - Gallows.wav Pre-gap length 0:00:02.00 Peak level 99.1 %
Extraction speed 4.6 X
Track quality 100.0 %
Test CRC 87822C27
Copy CRC 87822C27
Accurately ripped (confidence 3) [A6840BC3] (AR v2)
Copy OK

Track 8 Filename D:\what.cd\Classic Rock presents Prog- Prognosis 18\08. Spirits Burning - Internal Detective.wav Pre-gap length 0:00:02.00 Peak level 99.8 %
Extraction speed 4.8 X
Track quality 100.0 %
Test CRC D6545DC2
Copy CRC D6545DC2
Accurately ripped (confidence 3) [151E6941] (AR v2)
Copy OK

Track 9 Filename D:\what.cd\Classic Rock presents Prog- Prognosis 18\09. Atrium - Like You.wav Pre-gap length 0:00:02.00 Peak level 96.6 %
Extraction speed 5.2 X
Track quality 100.0 %
Test CRC 7D7636C1
Copy CRC 7D7636C1
Accurately ripped (confidence 3) [EC27EB7D] (AR v2)
Copy OK

All tracks accurately ripped

No errors occurred

End of status report

---- CUETools DB Plugin V2.1.3

[CTDB TOCID: wthBGiX6ZrfJCb_Ua2NOhSktKIw-] found, Submit result: wthBGiX6ZrfJCb_Ua2NOhSktKIw- has been confirmed
[a43c27b8] (3/3) Accurately ripped

==== Log checksum 04897ACDB93BD5C4D30E797C1B4E3277499EC558C67DC81A0CC651898D1577D9 ====

[CUETools log; Date: 18.04.2015 17:54:03; Version: 2.1.4]
CD-Extra data track length 04:17:34.
[CTDB TOCID: wthBGiX6ZrfJCb_Ua2NOhSktKIw-] found.
Track | CTDB Status
1 | (4/4) Accurately ripped
2 | (4/4) Accurately ripped
3 | (4/4) Accurately ripped
4 | (4/4) Accurately ripped
5 | (4/4) Accurately ripped
6 | (4/4) Accurately ripped
7 | (4/4) Accurately ripped
8 | (4/4) Accurately ripped
9 | (4/4) Accurately ripped
[AccurateRip ID: 0018b970-00b1935c-8410e70a] found.
Track [ CRC | V2 ] Status
01 94cdb6a|aef904d5 (3+6/9) Accurately ripped
02 [f1468619|82cc2bad] (3+6/9) Accurately ripped
03 [7b214b42|2c84670a] (3+6/9) Accurately ripped
04 [47e90be6|b9b23947] (3+6/9) Accurately ripped
05 [e53b0b96|63044888] (3+6/9) Accurately ripped
06 [32cc40ab|5a3f4126] (3+6/9) Accurately ripped
07 [e36c4db6|a6840bc3] (3+6/9) Accurately ripped
08 [c0b009f4|151e6941] (3+6/9) Accurately ripped
09 [4fdc350a|ec27eb7d] (3+6/9) Accurately ripped

Track Peak [ CRC32 ] [W/O NULL] [ LOG ]
-- 100,0 [900246A7] [A6A0F50C]
01 99,6 [C19906A1] [EE4401F0] CRC32
02 98,8 [4FAA2783] [74C29861] CRC32
03 100,0 [F1A5FF73] [F442CE7D] CRC32
04 99,4 [A11F1D76] [C8346DD4] CRC32
05 96,8 [ED375250] [E2FEB729] CRC32
06 97,9 [6082BB0B] [022279DA] CRC32
07 99,1 [87822C27] [25CA5CA8] CRC32
08 99,8 [D6545DC2] [1E96720B] CRC32
09 96,6 [7D7636C1] [99936ABB] CRC32

V.A. - Classic Rock presents Prog: Prognosis 18-19 (2011)

V.A. - Classic Rock presents Prog: Prognosis 19 (2011)
EAC Rip | FLAC (tracks+.cue+log) - 418 MB | MP3 CBR 320 kbps (LAME 3.93) - 161 MB | Covers (2 MB) included
Genre: Progressive Rock | RAR 3% Rec. | Label: Future (ROP19CD-09-11)

Tracklist:
01. Cosmograf - Into This World
02. Presto Ballet - The Puzzle
03. David R Black - Ezra
04. Nosound - Lightdark (Live)
05. Panic Room - Sandstorms
06. Phaedra - Honeydewed Autumn
07. Sendelica - Banshees & Fetches
08. Cranium Pie - Rememberr
09. John Wesley - Firelight

Total time: 01:07:26

Exact Audio Copy V1.0 beta 3 from 29. August 2011

EAC extraction logfile from 15. May 2013, 21:46

Various Artists / Classic Rock presents Prog: Prognosis 19

Used drive : TSSTcorpCDDVDW SH-224BB Adapter: 1 ID: 0

Read mode : Secure
Utilize accurate stream : Yes
Defeat audio cache : Yes
Make use of C2 pointers : No

Read offset correction

: 6
Overread into Lead-In and Lead-Out : No
Fill up missing offset samples with silence : Yes
Delete leading and trailing silent blocks : No
Null samples used in CRC calculations : Yes
Used interface
: Native Win32 interface for Win NT & 2000
Gap handling
: Appended to previous track

Used output format : User Defined Encoder
Selected bitrate : 896 kBit/s
Quality : High
Add ID3 tag : No
Command line compressor : C:\Program Files (x86)\FLAC\flac.exe
Additional command line options : -8 -V -T "artist=%artist%" -T "albumartist=%albumartist%" -T "album=%albumtitle%" -T "title=%title%" -T "year=%year%" -T "tracknumber=%tracknr2%" -T "genre=%genre%" %source% -o %dest%

TOC of the extracted CD Track | Start | Length | Start sector | End sector
1 | 0:00.00 | 11:14.06 | 0 | 50555 2 | 11:14.06 | 7:49.17 | 50556 | 85747 3 | 19:03.23 | 4:00.46 | 85748 | 103793 4 | 23:03.69 | 8:08.38 | 103794 | 140431 5 | 31:12.32 | 7:15.59 | 140432 | 173115 6 | 38:28.16 | 5:34.57 | 173116 | 198222 7 | 44:02.73 | 12:20.41 | 198223 | 253763 8 | 56:23.39 | 6:26.65 | 253764 | 282778 9 | 62:50.29 | 4:35.51 | 282779 | 303454

Track 1 Filename F:\My Documents\My Music\Albums (Complete)\01. Cosmograf - Into This World.wav Pre-gap length 0:00:02.00 Peak level 98.8 %
Extraction speed 2.2 X
Track quality 100.0 %
Test CRC 41A2FA30
Copy CRC 41A2FA30
Track not present in AccurateRip database
Copy OK

Track 2 Filename F:\My Documents\My Music\Albums (Complete)\02. Presto Ballet - The Puzzle.wav Pre-gap length 0:00:02.00 Peak level 98.8 %
Extraction speed 2.6 X
Track quality 100.0 %
Test CRC 07CDB44D
Copy CRC 07CDB44D
Track not present in AccurateRip database
Copy OK

Track 3 Filename F:\My Documents\My Music\Albums (Complete)\03. David R Black - Ezra.wav Pre-gap length 0:00:02.00 Peak level 98.8 %
Extraction speed 2.6 X
Track quality 100.0 %
Test CRC AD31187F
Copy CRC AD31187F
Track not present in AccurateRip database
Copy OK

Track 4 Filename F:\My Documents\My Music\Albums (Complete)\04. Nosound - Lightdark (Live).wav Pre-gap length 0:00:02.00 Peak level 94.5 %
Extraction speed 3.0 X
Track quality 100.0 %
Test CRC 7F8F1C33
Copy CRC 7F8F1C33
Track not present in AccurateRip database
Copy OK

Track 5 Filename F:\My Documents\My Music\Albums (Complete)\05. Panic Room - Sandstorms.wav Pre-gap length 0:00:02.00 Peak level 99.7 %
Extraction speed 3.2 X
Track quality 100.0 %
Test CRC 458C9690
Copy CRC 458C9690
Track not present in AccurateRip database
Copy OK

Track 6 Filename F:\My Documents\My Music\Albums (Complete)\06. Phaedra - Honeydewed Autumn.wav Pre-gap length 0:00:02.00 Peak level 98.8 %
Extraction speed 3.3 X
Track quality 100.0 %
Test CRC 6FDFD2A5
Copy CRC 6FDFD2A5
Track not present in AccurateRip database
Copy OK

Track 7 Filename F:\My Documents\My Music\Albums (Complete)\07. Sendelica - Banshees And Fetches.wav Pre-gap length 0:00:02.00 Peak level 98.8 %
Extraction speed 3.7 X
Track quality 100.0 %
Test CRC 7914D38E
Copy CRC 7914D38E
Track not present in AccurateRip database
Copy OK

Track 8 Filename F:\My Documents\My Music\Albums (Complete)\08. Cranium Pie - Rememberr.wav Pre-gap length 0:00:02.00 Peak level 98.8 %
Extraction speed 3.8 X
Track quality 100.0 %
Test CRC 778457E1
Copy CRC 778457E1
Track not present in AccurateRip database
Copy OK

Track 9 Filename F:\My Documents\My Music\Albums (Complete)\09. John Wesley - Firelight.wav Pre-gap length 0:00:02.00 Peak level 98.8 %
Extraction speed 3.8 X
Track quality 100.0 %
Test CRC 65091704
Copy CRC 65091704
Track not present in AccurateRip database
Copy OK

None of the tracks are present in the AccurateRip database

No errors occurred

End of status report

==== Log checksum EF207DA95875698BB8E2DE2F750AEF9DDB98DF7DB0BED9322EE8783809C9FDB4 ====

[CUETools log; Date: 18.04.2015 17:54:25; Version: 2.1.4]
[CTDB TOCID: O6d2w69LtJdlEI.3zznpuM3jOaA-] found.
Track | CTDB Status
1 | (5/5) Accurately ripped
2 | (5/5) Accurately ripped
3 | (5/5) Accurately ripped
4 | (5/5) Accurately ripped
5 | (5/5) Accurately ripped
6 | (5/5) Accurately ripped
7 | (5/5) Accurately ripped
8 | (5/5) Accurately ripped
9 | (5/5) Accurately ripped
[AccurateRip ID: 00184a3b-00afa747-810fce09] found.
Track [ CRC | V2 ] Status
01 [77d54f65|ec744a66] (0+2/2) Accurately ripped
02 [a0cfefb8|1ee6e88b] (0+2/2) Accurately ripped
03 [db0927d3|8d406e21] (0+2/2) Accurately ripped
04 [32171d8d|aa316bb4] (0+2/2) Accurately ripped
05 [58bb49a1|5047e454] (0+2/2) Accurately ripped
06 [a740c7ff|68537865] (0+2/2) Accurately ripped
07 8d0431f|14be7917 (0+2/2) Accurately ripped
08 [8e7349f3|a3d98716] (0+2/2) Accurately ripped
09 [1011aeb3|561e2c97] (0+2/2) Accurately ripped

Track Peak [ CRC32 ] [W/O NULL] [ LOG ]
-- 99,7 [CB4BE491] [CA0115F8]
01 98,8 [41A2FA30] [E12840F7] CRC32
02 98,8 [07CDB44D] [A2D6A028] CRC32
03 98,8 [AD31187F] [409C2F19] CRC32
04 94,5 [7F8F1C33] [16B9320E] CRC32
05 99,7 [458C9690] [5D1D8047] CRC32
06 98,8 [6FDFD2A5] [4F92DD76] CRC32
07 98,8 [7914D38E] 4296AC4 CRC32
08 98,8 [778457E1] [3F400474] CRC32
09 98,8 [65091704] 41E3996 CRC32

Thanks to kirjakach & Summerisle

LOSSLESS:
DOWNLOAD LINKS:
Buy Premium To Support Me & Get Resumable Support & Max Speed


Links are Interchangeable - No Password - Single Extraction
Direct Download


Tags: Classic, presents, Prognosis

V.A. - Classic Rock presents Prog: Prognosis 18-19 (2011) Fast Download via Rapidshare Hotfile Fileserve Filesonic Megaupload, V.A. - Classic Rock presents Prog: Prognosis 18-19 (2011) Torrents and Emule Download or anything related.
Dear visitor, you went to website as unregistered user.
We encourage you to Register or Login to website under your name.
Information
Members of Guest cannot leave comments.