Johnny Winter - Anthology (1989)

Category: Music | Comment: 0

Download Now

Johnny Winter - Anthology (1989)

Johnny Winter - Anthology (1989)
EAC | Flac(Image) + Cue + Log & MP3 CBR 320Kbps
Sony Music Select, BUK 50251 | ~ 221 or 94 Mb | Scans Included
Blues Rock

"John Dawson Winter III (February 23, 1944 - July 16, 2014), known as Johnny Winter, was an American blues guitarist, multi-instrumentalist, singer, and producer. Best known for his high-energy blues-rock albums and live performances in the late 1960s and 1970s, Winter also produced three Grammy Award-winning albums for blues singer and guitarist Muddy Waters..."


Tracklist:

01. I'll Drown In My Tears (4:43)
02. Riot In Cell Block # 9 (3:08)
03. Raised On Rock (4:40)
04. Johnny B. Goode (2:43)
05. Rock And Roll Hoochie Koo (3:29)
06. Highway 61 Revisited (5:04)
07. 21st Century Man (2:32)
08. Jumpin' Jack Flash (4:24)
09. Can't You Feel It? (2:59)
10. Still Alive And Well (3:42)

Exact Audio Copy V1.0 beta 3 from 29. August 2011

EAC extraction logfile from 26. November 2012, 18:14

Johnny Winter / Anthology [Sony Music Select]

Used drive : LITE-ON CD-RW SOHR-5238S Adapter: 1 ID: 0

Read mode : Secure
Utilize accurate stream : Yes
Defeat audio cache : Yes
Make use of C2 pointers : No

Read offset correction

: 6
Overread into Lead-In and Lead-Out : No
Fill up missing offset samples with silence : Yes
Delete leading and trailing silent blocks : No
Null samples used in CRC calculations : Yes
Used interface
: Native Win32 interface for Win NT & 2000
Gap handling
: Appended to previous track

Used output format : User Defined Encoder
Selected bitrate : 1024 kBit/s
Quality : High
Add ID3 tag : No
Command line compressor : C:\Program Files\Exact Audio Copy\FLAC\FLAC.EXE
Additional command line options : -8 -V -T "ARTIST=%artist%" -T "TITLE=%title%" -T "ALBUM=%albumtitle%" -T "YEAR=%year%" -T "TRACK=%tracknr%" -T "GENRE=%genre%" -T "COMMENT=%comment%" %source% -o %dest%

TOC of the extracted CD Track | Start | Length | Start sector | End sector
1 | 0:00.00 | 4:46.48 | 0 | 21497 2 | 4:46.48 | 3:11.32 | 21498 | 35854 3 | 7:58.05 | 4:43.38 | 35855 | 57117 4 | 12:41.43 | 2:46.37 | 57118 | 69604 5 | 15:28.05 | 3:32.43 | 69605 | 85547 6 | 19:00.48 | 5:07.00 | 85548 | 108572 7 | 24:07.48 | 2:35.02 | 108573 | 120199 8 | 26:42.50 | 4:23.70 | 120200 | 139994 9 | 31:06.45 | 3:02.00 | 139995 | 153644
10 | 34:08.45 | 3:42.35 | 153645 | 170329

Track 1 Filename C:\Johnny Winter - Anthology [Sony Music Select]\01 I'll Drown In My Tears.wav Pre-gap length 0:00:02.00 Peak level 74.2 %
Extraction speed 4.9 X
Track quality 100.0 %
Test CRC CDC1CA02
Copy CRC CDC1CA02
Accurately ripped (confidence 3) [0E096FB6] (AR v1)
Copy OK

Track 2 Filename C:\Johnny Winter - Anthology [Sony Music Select]\02 Riot In Cell Block #9.wav Pre-gap length 0:00:02.73 Peak level 83.7 %
Extraction speed 5.2 X
Track quality 100.0 %
Test CRC E628602C
Copy CRC E628602C
Accurately ripped (confidence 3) [0AC46EB2] (AR v1)
Copy OK

Track 3 Filename C:\Johnny Winter - Anthology [Sony Music Select]\03 Raised On rock.wav Pre-gap length 0:00:02.50 Peak level 83.4 %
Extraction speed 5.6 X
Track quality 99.9 %
Test CRC A316A099
Copy CRC A316A099
Accurately ripped (confidence 3) [DE3C3CEC] (AR v1)
Copy OK

Track 4 Filename C:\Johnny Winter - Anthology [Sony Music Select]\04 Johnny B. Goode.wav Pre-gap length 0:00:02.40 Peak level 86.0 %
Extraction speed 6.0 X
Track quality 100.0 %
Test CRC DE7AE7B4
Copy CRC DE7AE7B4
Accurately ripped (confidence 3) [A4FC29EC] (AR v1)
Copy OK

Track 5 Filename C:\Johnny Winter - Anthology [Sony Music Select]\05 Rock And Roll Hoochie Koo.wav Pre-gap length 0:00:02.50 Peak level 89.6 %
Extraction speed 6.4 X
Track quality 100.0 %
Test CRC C582A0E6
Copy CRC C582A0E6
Accurately ripped (confidence 3) [96FBC749] (AR v1)
Copy OK

Track 6 Filename C:\Johnny Winter - Anthology [Sony Music Select]\06 Highway 61 Revisited.wav Pre-gap length 0:00:02.45 Peak level 74.7 %
Extraction speed 7.2 X
Track quality 100.0 %
Test CRC 55085AD5
Copy CRC 55085AD5
Accurately ripped (confidence 3) 6BCD827 (AR v1)
Copy OK

Track 7 Filename C:\Johnny Winter - Anthology [Sony Music Select]\07 21st Century Man.wav Pre-gap length 0:00:02.48 Peak level 78.8 %
Extraction speed 6.0 X
Track quality 99.9 %
Test CRC E44B7CA2
Copy CRC E44B7CA2
Accurately ripped (confidence 3) [AF916C36] (AR v1)
Copy OK

Track 8 Filename C:\Johnny Winter - Anthology [Sony Music Select]\08 Jumpin' Jack Flash.wav Pre-gap length 0:00:02.57 Peak level 79.2 %
Extraction speed 6.4 X
Track quality 99.9 %
Test CRC 1DF99769
Copy CRC 1DF99769
Accurately ripped (confidence 3) [8DE955F6] (AR v1)
Copy OK

Track 9 Filename C:\Johnny Winter - Anthology [Sony Music Select]\09 Can't You Feel It.wav Peak level 80.9 %
Extraction speed 7.2 X
Track quality 100.0 %
Test CRC 2E7E9445
Copy CRC 2E7E9445
Accurately ripped (confidence 3) [4A02F7D6] (AR v1)
Copy OK

Track 10 Filename C:\Johnny Winter - Anthology [Sony Music Select]\10 Still Alive & Well.wav Pre-gap length 0:00:02.35 Peak level 71.0 %
Extraction speed 6.9 X
Track quality 99.9 %
Test CRC A746487F
Copy CRC A746487F
Accurately ripped (confidence 3) [7BEE0095] (AR v1)
Copy OK

All tracks accurately ripped

No errors occurred

End of status report

==== Log checksum 4E4F55A523D4C85797B59FEF454AE11F6A8D84A18482DBE19A15893C42EC29D3 ====

foobar2000 1.2.9 / Dynamic Range Meter 1.1.1
log date: 2015-04-27 13:41:23

------
Analyzed: Johnny Winter / Anthology [Sony Music Select]
------

DR Peak RMS Duration Track
------
DR12 -2.59 dB -17.63 dB 4:47 01-I'll Drown In My Tears
DR12 -1.54 dB -15.59 dB 3:11 02-Riot In Cell Block #9
DR9 -1.58 dB -12.79 dB 4:44 03-Raised On rock
DR10 -1.31 dB -12.68 dB 2:46 04-Johnny B. Goode
DR10 -0.95 dB -13.02 dB 3:33 05-Rock And Roll Hoochie Koo
DR11 -2.53 dB -14.56 dB 5:07 06-Highway 61 Revisited
DR11 -2.07 dB -16.53 dB 2:35 07-21st Century Man
DR10 -2.03 dB -14.34 dB 4:24 08-Jumpin' Jack Flash
DR11 -1.84 dB -14.21 dB 3:02 09-Can't You Feel It
DR11 -2.96 dB -15.63 dB 3:42 10-Still Alive & Well
------

Number of tracks: 10
Official DR value: DR11

Samplerate: 44100 Hz
Channels: 2
Bits per sample: 16
Bitrate: 774 kbps
Codec: FLAC

[CUETools log; Date: 27.04.2015 13:41:46; Version: 2.1.4]
[CTDB TOCID: 72ibj1bWYLjOJpYqmy0Ge2DhWjw-] found.
Track | CTDB Status
1 | (1/1) Accurately ripped
2 | (1/1) Accurately ripped
3 | (1/1) Accurately ripped
4 | (1/1) Accurately ripped
5 | (1/1) Accurately ripped
6 | (1/1) Accurately ripped
7 | (1/1) Accurately ripped
8 | (1/1) Accurately ripped
9 | (1/1) Accurately ripped
10 | (1/1) Accurately ripped
[AccurateRip ID: 000eaf3f-00747479-7f08df0a] found.
Track [ CRC | V2 ] Status
01 [0e096fb6|be570321] (3+4/7) Accurately ripped
02 [0ac46eb2|244db588] (3+4/7) Accurately ripped
03 [de3c3cec|0b35e6e1] (3+4/7) Accurately ripped
04 [a4fc29ec|14ebdd0b] (3+4/7) Accurately ripped
05 [96fbc749|441eab10] (3+4/7) Accurately ripped
06 6bcd827|4bdf4333 (3+4/7) Accurately ripped
07 [af916c36|8c9f00fa] (3+4/7) Accurately ripped
08 [8de955f6|42a00704] (3+4/7) Accurately ripped
09 [4a02f7d6|30bb09ab] (3+4/7) Accurately ripped
10 [7bee0095|d24ddac2] (3+4/7) Accurately ripped

Track Peak [ CRC32 ] [W/O NULL] [ LOG ]
-- 89,6 [7E62D834] [ECDB41B9]
01 74,2 [CDC1CA02] [185B7432] CRC32
02 83,7 [E628602C] [D7CA96CE] CRC32
03 83,4 [A316A099] [1CB96899] CRC32
04 86,0 [DE7AE7B4] [A0EEFE24] CRC32
05 89,6 [C582A0E6] [29175163] CRC32
06 74,7 [55085AD5] [EB7910F3] CRC32
07 78,8 [E44B7CA2] [5F6F7911] CRC32
08 79,2 [1DF99769] [ADE0EB3C] CRC32
09 80,9 [2E7E9445] [DAAA0BEF] CRC32
10 71,0 [A746487F] [5433C2FC] CRC32

Johnny Winter - Anthology (1989)

DOWNLOAD LINKS:
Buy Premium To Support Me & Get Resumable Support & Max Speed


Links are Interchangeable - No Password - Single Extraction
Direct Download


Tags: Johnny, Winter, Anthology

Johnny Winter - Anthology (1989) Fast Download via Rapidshare Hotfile Fileserve Filesonic Megaupload, Johnny Winter - Anthology (1989) Torrents and Emule Download or anything related.
Dear visitor, you went to website as unregistered user.
We encourage you to Register or Login to website under your name.
Information
Members of Guest cannot leave comments.