Pascal Roge - Erik Satie: 3 Gymnopedies & Other Piano Works (1984) Reissue 2006

Category: Music | Comment: 0

Download Now

Pascal Roge - Erik Satie: 3 Gymnopedies & Other Piano Works (1984) Reissue 2006

Pascal Roge - Erik Satie: 3 Gymnopedies & Other Piano Works (1984) Reissue 2006
EAC | FLAC | Image (Cue&Log) ~ 194 Mb (incl 5%) | Mp3 (CBR320) ~ 168 Mb (incl 5%) | Scans included
Genre: Classical | Label: Decca | # 475 7527 | | Time: 01:00:43

"The lingering despair of Satie's gnossienes and gymnopedies are among the most affected compositions from the last century, and Roge transmits this fragility such that one becomes cautious of other Satie interpreters after experiencing his delicate phrasing. In addition to the artistic quality of Roge's pianism, this disc is a very comprehensive survey of Satie's piano works, although it neglects the gorgeous nocturnes that can be found on a recording by Roge unfortunately titled "after the rain..the soft sounds of Erik Satie"."

"This is far and away the best playing of Satie's most popular works. Roge's other Satie disk is worth owning as well. Tempos are carefully chosen, with special attention to the subtleties each work presents. I also own Ciccolini and Thibaudet's complete Satie recordings and Roge outshines them at nearly every turn. A must own disc for all true Satie lovers.

Review by Terry C. Kildal, Amazon.com
"



Tracklist:

01. Gymnopedie No.1 (03:10)
02. Gymnopedie No.2 (02:33)
03. Gymnopedie No.3 (02:35)
04. Je te veux (05:14)
05. 4 Preludes flasques (05:19)
06. Prelude en tapisserie (02:59)
07. 4eme Nocturne (02:59)
08. Vieux Sequins et Vielles Cuirasses (04:25)
09. Embryons desseches (06:14)
10. Gnossienne No.1 (03:45)
11. Gnossienne No.2 (02:35)
12. Gnossienne No.3 (03:15)
13. Gnossienne No.4 (03:35)
14. Gnossienne No.5 (04:07)
15. Gnossienne No.6 (01:55)
16. Sonatine bureaucratique (04:20)
17. Le Picadilly (01:36)


Exact Audio Copy V1.0 beta 1 from 15. November 2010

EAC extraction logfile from 2. October 2011, 22:11

Erik Satie / 3 Gymnopedies & other piano works

Used drive : Optiarc DVD RW AD-7203A Adapter: 4 ID: 1

Read mode : Secure
Utilize accurate stream : Yes
Defeat audio cache : Yes
Make use of C2 pointers : No

Read offset correction

: 48
Overread into Lead-In and Lead-Out : No
Fill up missing offset samples with silence : Yes
Delete leading and trailing silent blocks : No
Null samples used in CRC calculations : Yes
Used interface
: Native Win32 interface for Win NT & 2000

Used output format : User Defined Encoder
Selected bitrate : 128 kBit/s
Quality : High
Add ID3 tag : No
Command line compressor : C:\Program Files\FLAC\flac.exe
Additional command line options : -T "COMMENT=Ripped by GFox" -8 -V %s

TOC of the extracted CD Track | Start | Length | Start sector | End sector
1 | 0:00.32 | 3:10.45 | 32 | 14326 2 | 3:11.02 | 2:33.20 | 14327 | 25821 3 | 5:44.22 | 2:35.58 | 25822 | 37504 4 | 8:20.05 | 5:14.27 | 37505 | 61081 5 | 13:34.32 | 5:19.70 | 61082 | 85076 6 | 18:54.27 | 2:59.48 | 85077 | 98549 7 | 21:54.00 | 2:59.70 | 98550 | 112044 8 | 24:53.70 | 4:25.57 | 112045 | 131976 9 | 29:19.52 | 6:14.60 | 131977 | 160086
10 | 35:34.37 | 3:45.33 | 160087 | 176994
11 | 39:19.70 | 2:35.12 | 176995 | 188631
12 | 41:55.07 | 3:15.15 | 188632 | 203271
13 | 45:10.22 | 3:35.00 | 203272 | 219396
14 | 48:45.22 | 4:07.10 | 219397 | 237931
15 | 52:52.32 | 1:55.63 | 237932 | 246619
16 | 54:48.20 | 4:20.00 | 246620 | 266119
17 | 59:08.20 | 1:36.05 | 266120 | 273324

Range status and errors

Selected range Filename D:\EAC\Erik Satie - 3 Gymnopedies & other piano works.wav Peak level 97.3 %
Extraction speed 0.1 X
Range quality 100.0 %
Test CRC 2C854A4A
Copy CRC 2C854A4A
Copy OK

No errors occurred


AccurateRip summary

Track 1 accurately ripped (confidence 5) [DC12F80F]
Track 2 accurately ripped (confidence 5) [F7216689]
Track 3 accurately ripped (confidence 5) [469FFFC8]
Track 4 accurately ripped (confidence 5) [342687C2]
Track 5 accurately ripped (confidence 5) [AEF4D27F]
Track 6 accurately ripped (confidence 5) [A7FC4CC4]
Track 7 accurately ripped (confidence 5) [FDCB0D54]
Track 8 accurately ripped (confidence 5) [D696AA42]
Track 9 accurately ripped (confidence 5) [912776B1]
Track 10 accurately ripped (confidence 5) [F7BD7B9B]
Track 11 accurately ripped (confidence 5) [5ACE2DDF]
Track 12 accurately ripped (confidence 5) [257130F5]
Track 13 accurately ripped (confidence 5) [855E1949]
Track 14 accurately ripped (confidence 5) [D7933F70]
Track 15 accurately ripped (confidence 5) [2D0BA6C7]
Track 16 accurately ripped (confidence 5) [A01CD3A8]
Track 17 accurately ripped (confidence 5) E8DBEF4

All tracks accurately ripped

End of status report

==== Log checksum 09A3F4BEC8E7F976B0B90B3FA32F1038BC84AE73FEBA30890C1979BD62D2D9E1 ====

foobar2000 1.3.8 / Dynamic Range Meter 1.1.1
log date: 2015-05-08 00:16:28

------
Analyzed: Erik Satie / 3 Gymnopedies & other piano works
------

DR Peak RMS Duration Track
------
DR12 -16.47 dB -32.82 dB 3:11 01-Gymnopedie No.1
DR13 -13.76 dB -32.55 dB 2:33 02-Gymnopedie No.2
DR13 -14.63 dB -33.92 dB 2:36 03-Gymnopedie No.3
DR15 -1.51 dB -21.96 dB 5:14 04-Je te veux
DR17 -2.06 dB -24.99 dB 5:20 05-4 Preludes flasques
DR13 -3.63 dB -22.86 dB 3:00 06-Prelude en tapisserie
DR13 -6.41 dB -27.24 dB 3:00 07-4eme Nocturne
DR15 -0.73 dB -21.28 dB 4:26 08-Vieux Sequins et Vielles Cuirasses
DR15 -0.24 dB -20.99 dB 6:15 09-Embryons desseches
DR12 -10.02 dB -27.70 dB 3:45 10-Gnossienne No.1
DR13 -10.30 dB -30.03 dB 2:35 11-Gnossienne No.2
DR13 -10.50 dB -29.62 dB 3:15 12-Gnossienne No.3
DR13 -8.10 dB -29.11 dB 3:35 13-Gnossienne No.4
DR15 -7.74 dB -29.53 dB 4:07 14-Gnossienne No.5
DR12 -10.31 dB -27.24 dB 1:56 15-Gnossienne No.6
DR15 -0.62 dB -22.17 dB 4:20 16-Sonatine bureaucratique
DR14 -0.28 dB -18.18 dB 1:36 17-Le Picadilly
------

Number of tracks: 17
Official DR value: DR14

Samplerate: 44100 Hz
Channels: 2
Bits per sample: 16
Bitrate: 378 kbps
Codec: FLAC

Pascal Roge - Erik Satie: 3 Gymnopedies & Other Piano Works (1984) Reissue 2006



DOWNLOAD LINKS:
Buy Premium To Support Me & Get Resumable Support & Max Speed


Links are Interchangeable - No Password - Single Extraction
Direct Download


Tags: Pascal, Gymnopedies, Reissue

Pascal Roge - Erik Satie: 3 Gymnopedies & Other Piano Works (1984) Reissue 2006 Fast Download via Rapidshare Hotfile Fileserve Filesonic Megaupload, Pascal Roge - Erik Satie: 3 Gymnopedies & Other Piano Works (1984) Reissue 2006 Torrents and Emule Download or anything related.
Dear visitor, you went to website as unregistered user.
We encourage you to Register or Login to website under your name.
Information
Members of Guest cannot leave comments.