Faragher Bros - Open Your Eyes (1978) [2010 Japan]

Category: Music | Comment: 0

Download Now

Faragher Bros - Open Your Eyes (1978) [2010 Japan]

Faragher Bros - Open Your Eyes (1978) [2010 Japan]
EAC Rip | FLAC (Tracks) +CUE, LOG | 374 MB | Covers Included
R&B | Label: Universal Records | Catalog Number: UICY-94689

"The Faragher Brothers are a blue-eyed soul family musical group from Redlands, California consisting originally of brothers Tommy Faragher, Davey Faragher, Jimmy Faragher and Danny Faragher."

Exact Audio Copy V1.0 beta 3 from 29. August 2011

EAC extraction logfile from 7. May 2015, 23:12

Faragher Brothers / Open Your Eyes (2010 Remastered)

Used drive : ATAPI DVD A DH16A6L-C Adapter: 2 ID: 0

Read mode : Secure
Utilize accurate stream : Yes
Defeat audio cache : Yes
Make use of C2 pointers : No

Read offset correction

: 6
Overread into Lead-In and Lead-Out : No
Fill up missing offset samples with silence : Yes
Delete leading and trailing silent blocks : No
Null samples used in CRC calculations : Yes
Used interface
: Native Win32 interface for Win NT & 2000
Gap handling
: Appended to previous track

Used output format : User Defined Encoder
Selected bitrate : 1024 kBit/s
Quality : High
Add ID3 tag : No
Command line compressor : C:\Program Files\FLAC\flac.exe
Additional command line options : -8 -V -T "ARTIST=%artist%" -T "TITLE=%title%" -T "ALBUM=%albumtitle%" -T "DATE=%year%" -T "TRACKNUMBER=%tracknr%" -T "GENRE=%genre%" -T "PERFORMER=%albuminterpret%" -T "COMPOSER=%composer%" %haslyrics%--tag-from-file=LYRICS="%lyricsfile%"%haslyrics% -T "ALBUMARTIST=%albumartist%" -T "DISCNUMBER=%cdnumber%" -T "TOTALDISCS=%totalcds%" -T "TOTALTRACKS=%numtracks%" -T "COMMENT=%comment%" %source% -o %dest%

TOC of the extracted CD Track | Start | Length | Start sector | End sector
1 | 0:00.00 | 5:19.52 | 0 | 23976 2 | 5:19.52 | 3:49.50 | 23977 | 41201 3 | 9:09.27 | 3:28.15 | 41202 | 56816 4 | 12:37.42 | 3:42.38 | 56817 | 73504 5 | 16:20.05 | 3:25.45 | 73505 | 88924 6 | 19:45.50 | 4:04.72 | 88925 | 107296 7 | 23:50.47 | 3:47.35 | 107297 | 124356 8 | 27:38.07 | 4:57.45 | 124357 | 146676 9 | 32:35.52 | 4:47.35 | 146677 | 168236

Track 1 Filename H:\0\..................00\post\Faragher Bros - Open Your Eyes (1978) [2010 Japan]\01 - Baby When You Make It With Me.wav Pre-gap length 0:00:02.00 Peak level 96.4 %
Extraction speed 3.1 X
Track quality 99.9 %
Test CRC 9FC663D3
Copy CRC 9FC663D3
Accurately ripped (confidence 1) [6CB1AD2D] (AR v2)
Copy OK

Track 2 Filename H:\0\..................00\post\Faragher Bros - Open Your Eyes (1978) [2010 Japan]\02 - Stay The Night.wav Pre-gap length 0:00:00.40 Peak level 88.0 %
Extraction speed 3.8 X
Track quality 100.0 %
Test CRC 4558D59A
Copy CRC 4558D59A
Accurately ripped (confidence 1) [8ECAC29B] (AR v2)
Copy OK

Track 3 Filename H:\0\..................00\post\Faragher Bros - Open Your Eyes (1978) [2010 Japan]\03 - Open Your Eyes.wav Pre-gap length 0:00:00.25 Peak level 92.3 %
Extraction speed 4.1 X
Track quality 100.0 %
Test CRC 32F0129D
Copy CRC 32F0129D
Accurately ripped (confidence 1) [D01ADA4D] (AR v2)
Copy OK

Track 4 Filename H:\0\..................00\post\Faragher Bros - Open Your Eyes (1978) [2010 Japan]\04 - Long Hard Climb.wav Pre-gap length 0:00:01.00 Peak level 95.1 %
Extraction speed 3.0 X
Track quality 99.9 %
Test CRC 790A0EE8
Copy CRC 790A0EE8
Accurately ripped (confidence 1) [69108198] (AR v2)
Copy OK

Track 5 Filename H:\0\..................00\post\Faragher Bros - Open Your Eyes (1978) [2010 Japan]\05 - Nothing To Lose.wav Pre-gap length 0:00:00.70 Peak level 84.9 %
Extraction speed 4.5 X
Track quality 100.0 %
Test CRC 2C833A11
Copy CRC 2C833A11
Accurately ripped (confidence 1) [5725AFB3] (AR v2)
Copy OK

Track 6 Filename H:\0\..................00\post\Faragher Bros - Open Your Eyes (1978) [2010 Japan]\06 - Doesn't It Make You Mad.wav Pre-gap length 0:00:00.38 Peak level 84.0 %
Extraction speed 4.9 X
Track quality 100.0 %
Test CRC 0EAEE647
Copy CRC 0EAEE647
Accurately ripped (confidence 1) [5C718863] (AR v2)
Copy OK

Track 7 Filename H:\0\..................00\post\Faragher Bros - Open Your Eyes (1978) [2010 Japan]\07 - That's A Start.wav Pre-gap length 0:00:00.57 Peak level 89.1 %
Extraction speed 5.0 X
Track quality 100.0 %
Test CRC B7C15444
Copy CRC B7C15444
Accurately ripped (confidence 1) [7E9E23C0] (AR v2)
Copy OK

Track 8 Filename H:\0\..................00\post\Faragher Bros - Open Your Eyes (1978) [2010 Japan]\08 - Silver To Gold.wav Pre-gap length 0:00:00.70 Peak level 96.8 %
Extraction speed 4.0 X
Track quality 99.9 %
Test CRC A1E55794
Copy CRC A1E55794
Accurately ripped (confidence 1) [254DD11E] (AR v2)
Copy OK

Track 9 Filename H:\0\..................00\post\Faragher Bros - Open Your Eyes (1978) [2010 Japan]\09 - Find A Lover Of My Own.wav Pre-gap length 0:00:00.22 Peak level 90.6 %
Extraction speed 2.5 X
Track quality 99.7 %
Test CRC 881DCC79
Copy CRC 881DCC79
Accurately ripped (confidence 1) [99EDE7E4] (AR v2)
Copy OK

All tracks accurately ripped

No errors occurred

End of status report

==== Log checksum A954C548D75949A589EC59FE99F6E09754CACB68A919DE8B1B9CF410266AA2A8 ====

Tracklist:
1. Baby When You Make It With Me
2. Stay The Night
3. Open Your Eyes
4. Long Hard Climb
5. Nothing To Lose
6. Doesn't It Make You Mad?
7. That's A Start
8. Silver To Gold
9. Find A Love Of My Own
DOWNLOAD LINKS:
Buy Premium To Support Me & Get Resumable Support & Max Speed


Links are Interchangeable - No Password - Single Extraction
Direct Download


Tags: Faragher

Faragher Bros - Open Your Eyes (1978) [2010 Japan] Fast Download via Rapidshare Hotfile Fileserve Filesonic Megaupload, Faragher Bros - Open Your Eyes (1978) [2010 Japan] Torrents and Emule Download or anything related.
Dear visitor, you went to website as unregistered user.
We encourage you to Register or Login to website under your name.
Information
Members of Guest cannot leave comments.