FM - Heroes And Villains (2015) [Japanese Edition]

Category: Music | Comment: 0

Download Now

FM - Heroes And Villains (2015) [Japanese Edition]

FM - Heroes And Villains (2015)
EAC Rip | FLAC (Img) + Cue + Log ~ 498 Mb | MP3 CBR320 ~ 158 Mb
Scans (JPG, 600 dpi) ~ 86 Mb | RAR 5% Recovery
Melodic Hard Rock, AOR | Avalon #MICP-11218

"FM released their ninth studio album Heroes and Villains via Frontiers Records on 20 April 2015 (UK / Europe) and 21 April 2015 (USA) and embark on a UK tour in May. Special guests for the tour are Romeo's Daughter and No Hot Ashes. The track "Shape I'm In" from the new album was added to the BBC Radio 2 playlist from Saturday 4 April 2015."

Official Website | Wiki | All Music
***************

FM - Heroes And Villains (2015) [Japanese Edition]

Track List:

01. Digging Up The Dirt [04:33]
02. You're The Best Thing About Me [05:47]
03. Life Is A Highway [04:39]
04. Fire & Rain [04:47]
05. Incredible [03:54]
06. Call On Me [04:30]
07. Cold Hearted [04:14]
08. Shape I'm In [03:36]
09. Big Brother [05:30]
10. Somedays I Only Want To Rock & Roll [04:30]
11. I Want You [04:43]
12. Walking With Angels [04:54]
13. Bad That's Good In You [05:02]
14. Preying On My Mind [05:36]

Exact Audio Copy V1.0 beta 3 from 29. August 2011

EAC extraction logfile from 17. May 2015, 15:14

FM / Heroes And Villains

Used drive : SlimtypeDVD A DS8A5SH Adapter: 0 ID: 0

Read mode : Secure
Utilize accurate stream : Yes
Defeat audio cache : Yes
Make use of C2 pointers : No

Read offset correction

: 6
Overread into Lead-In and Lead-Out : No
Fill up missing offset samples with silence : Yes
Delete leading and trailing silent blocks : No
Null samples used in CRC calculations : Yes
Used interface
: Installed external ASPI interface

Used output format : User Defined Encoder
Selected bitrate : 320 kBit/s
Quality : High
Add ID3 tag : No
Command line compressor : C:\Program Files (x86)\Exact Audio Copy\Flac\flac.exe
Additional command line options : -V -8 -T "Date=%year%" -T "Genre=%genre%" %source%

TOC of the extracted CD Track | Start | Length | Start sector | End sector
1 | 0:00.00 | 4:32.21 | 0 | 20420 2 | 4:32.21 | 5:46.60 | 20421 | 46430 3 | 10:19.06 | 4:38.46 | 46431 | 67326 4 | 14:57.52 | 4:46.05 | 67327 | 88781 5 | 19:43.57 | 3:53.33 | 88782 | 106289 6 | 23:37.15 | 4:29.54 | 106290 | 126518 7 | 28:06.69 | 4:13.32 | 126519 | 145525 8 | 32:20.26 | 3:35.30 | 145526 | 161680 9 | 35:55.56 | 5:29.59 | 161681 | 186414
10 | 41:25.40 | 4:29.22 | 186415 | 206611
11 | 45:54.62 | 4:42.25 | 206612 | 227786
12 | 50:37.12 | 4:53.30 | 227787 | 249791
13 | 55:30.42 | 5:01.22 | 249792 | 272388
14 | 60:31.64 | 5:35.07 | 272389 | 297520

Range status and errors

Selected range Filename D:\My Music\FM - 2015 Heroes And Villains\FM - Heroes And Villains.wav Peak level 99.1 %
Extraction speed 2.1 X
Range quality 100.0 %
Test CRC 4D0B119B
Copy CRC 4D0B119B
Copy OK

No errors occurred


AccurateRip summary

Track 1 not present in database
Track 2 not present in database
Track 3 not present in database
Track 4 not present in database
Track 5 not present in database
Track 6 not present in database
Track 7 not present in database
Track 8 not present in database
Track 9 not present in database
Track 10 not present in database
Track 11 not present in database
Track 12 not present in database
Track 13 not present in database
Track 14 not present in database

None of the tracks are present in the AccurateRip database

End of status report

==== Log checksum 76FF50C2764F53D56A41A6B9A9CC0E1316130E972053DFF3DEE5E873448EA444 ====

foobar2000 1.2.6 / Dynamic Range Meter 1.1.1
log date: 2015-05-17 21:18:58

------
Analyzed: FM / Heroes And Villains
------

DR Peak RMS Duration Track
------
DR7 -0.10 dB -7.90 dB 4:32 01-Digging Up The Dirt
DR6 -0.07 dB -7.70 dB 5:47 02-You're The Best Thing About Me
DR6 -0.10 dB -7.19 dB 4:39 03-Life Is A Highway
DR6 -0.10 dB -7.84 dB 4:46 04-Fire & Rain
DR6 -0.10 dB -8.05 dB 3:53 05-Incredible
DR6 -0.28 dB -7.22 dB 4:30 06-Call On Me
DR6 -0.28 dB -8.03 dB 4:13 07-Cold Hearted
DR6 -0.10 dB -7.65 dB 3:35 08-Shape I'm In
DR6 -0.10 dB -7.59 dB 5:30 09-Big Brother
DR6 -0.10 dB -6.77 dB 4:29 10-Somedays I Only Want To Rock & Roll
DR6 -0.10 dB -7.07 dB 4:42 11-I Want You
DR7 -0.10 dB -8.78 dB 4:53 12-Walking With Angels
DR6 -0.28 dB -7.35 dB 5:01 13-Bad That's Good In You
DR8 -0.17 dB -9.73 dB 5:35 14- Preying On My Mind
------

Number of tracks: 14
Official DR value: DR6

Samplerate: 44100 Hz
Channels: 2
Bits per sample: 16
Bitrate: 1004 kbps
Codec: FLAC

[CUETools log; Date: 17.05.2015 21:18:58; Version: 2.1.5]
[CTDB TOCID: qaJRbMSMZ5gIV.mVs2xZOZI0Hnk-] found.
Track | CTDB Status
1 | (1/1) Accurately ripped
2 | (1/1) Accurately ripped
3 | (1/1) Accurately ripped
4 | (1/1) Accurately ripped
5 | (1/1) Accurately ripped
6 | (1/1) Accurately ripped
7 | (1/1) Accurately ripped
8 | (1/1) Accurately ripped
9 | (1/1) Accurately ripped
10 | (1/1) Accurately ripped
11 | (1/1) Accurately ripped
12 | (1/1) Accurately ripped
13 | (1/1) Accurately ripped
14 | (1/1) Accurately ripped
[AccurateRip ID: 00219f65-0165833b-d80f7e0e] disk not present in database.

Track Peak [ CRC32 ] [W/O NULL] [ LOG ]
-- 99,1 [4D0B119B] [338CEC8C] CRC32
01 98,8 [C0DC91BD] [1B209D8B]
02 99,1 BDA072A [20081C53]
03 98,8 [8DDA18FE] [982B7ED4]
04 98,8 [4812F139] [C80A6C20]
05 98,8 [A0E37E13] [4B9F848E]
06 96,8 [5EBD359D] [52FDC362]
07 96,8 [A495B712] [5331F7AC]
08 98,8 [78A840EB] [6EE503F3]
09 98,8 [1EF58018] [28114FB7]
10 98,8 [F22BC008] [388A6982]
11 98,8 172D622 [E9774971]
12 98,8 [2F53151D] [4524FAE4]
13 96,8 [12E5A1BB] [633AF6FE]
14 98,0 [C968E332] [22AABCC6]

FM - Heroes And Villains (2015) [Japanese Edition]


DOWNLOAD LINKS:
Buy Premium To Support Me & Get Resumable Support & Max Speed


Links are Interchangeable - No Password - Single Extraction
Direct Download


Tags: Heroes, Villains, Japanese

FM - Heroes And Villains (2015) [Japanese Edition] Fast Download via Rapidshare Hotfile Fileserve Filesonic Megaupload, FM - Heroes And Villains (2015) [Japanese Edition] Torrents and Emule Download or anything related.
Dear visitor, you went to website as unregistered user.
We encourage you to Register or Login to website under your name.
Information
Members of Guest cannot leave comments.