The Rolling Stones - From the Vault: The Marquee - Live in 1971 (2015) [BDRip, 1080p]

Category: Music | Comment: 0

Download Now

The Rolling Stones - From the Vault: The Marquee - Live in 1971 (2015) [BDRip, 1080p]

The Rolling Stones - From the Vault: The Marquee - Live in 1971 (2015)
MKV, AVC, 1440x1080 (4:3), 29.970 fps, 11.6 Mbps | PCM, 2304 Kbps, 48.0 KHz, 2 ch
DTS 96/24 / Core, 1 510 Kbps, 96.0 KHz / 48.0 KHz, 6 ch
Classic Rock / Blues Rock | 00:38:41 + 00:21:57 | ~ 6.57 Gb

"Eagle Vision s SD Blu-ray range presents upscaled standard definition original material with DTS-HD Master Audio and LPCM stereo sound for the best possible quality. From The Vault is a series of live concerts from The Rolling Stones archive which are getting their first official release. The Marquee Live In 1971 is the latest addition to the series. The show was filmed at London s legendary Marquee club on March 26th 1971..."

The Rolling Stones - From the Vault: The Marquee - Live in 1971 (2015) [BDRip, 1080p]

The Rolling Stones at Wiki | The Rolling Stones at Discogs | The Rolling Stones at Allmusic | The Rolling Stones HomePage
The Rolling Stones - From the Vault: The Marquee - Live in 1971 (2015):


Tracklist:

01. Live With Me
02. Dead Flowers
03. I Got The Blues
04. Let It Rock
05. Midnight Rambler
06. (I Can't Get No) Satisfaction
07. Bitch
08. Brown Sugar

Bonus:
01. I Got The Blues Take 1
02. I Got The Blues Take 2
03. Bitch Take 1
04. Bitch Take 2

General
Unique ID
: 231765881578000615824106353400386214873 (0xAE5C7C32416705909478417356ECDBD9)
Complete name : G:\UP\Mix\The Rolling Stones - From the Vault The Marquee - Live in 1971\The.Rolling.Stones.From.The.Vault.The.Marquee.Club.Live.In.1971.2015.1080p.mkv
Format
: Matroska
Format version : Version 4 / Version 2
File size
: 4.16 GiB
Duration
: 38mn 41s
Overall bit rate : 15.4 Mbps
Encoded date : UTC 2015-06-19 18:29:22
Writing application

: mkvmerge v6.8.0 ('Theme for Great Cities') 64bit built on Mar 2 2014 21:34:26
Writing library : libebml v1.3.0 + libmatroska v1.4.1
DURATION
: 00:38:41.419000000
NUMBER_OF_FRAMES : 217633
NUMBER_OF_BYTES : 437877596
_STATISTICS_WRITING_APP : mkvmerge v7.9.0 ('Birds') 64bit
_STATISTICS_WRITING_DATE_UTC : 2015-06-19 07:56:40
_STATISTICS_TAGS : BPS DURATION NUMBER_OF_FRAMES NUMBER_OF_BYTES

Video
ID : 1
Format
: AVC
Format/Info
: Advanced Video Codec
Format profile : [email protected]
Format settings, CABAC : Yes
Format settings, ReFrames : 4 frames
Codec ID
: V_MPEG4/ISO/AVC
Duration
: 38mn 41s
Nominal bit rate : 11.6 Mbps
Width
: 1 440 pixels
Height
: 1 080 pixels
Display aspect ratio : 4:3
Frame rate mode : Constant
Frame rate
: 29.970 fps
Color space
: YUV
Chroma subsampling

: 4:2:0
Bit depth
: 8 bits
Scan type
: Progressive
Bits/(Pixel*Frame)

: 0.248
Writing library : x264 core 146 r2538 121396c
Encoding settings: cabac=1 / ref=4 / deblock=1:-1:-1 / analyse=0x3:0x113 / me=umh / subme=8 / psy=1 / psy_rd=1.00:0.15 / mixed_ref=1 / me_range=16 / chroma_me=1 / trellis=1 / 8x8dct=1 / cqm=0 / deadzone=21,11 / fast_pskip=0 / chroma_qp_offset=-3 / threads=6 / lookahead_threads=1 / sliced_threads=0 / nr=0 / decimate=1 / interlaced=0 / bluray_compat=0 / constrained_intra=0 / bframes=3 / b_pyramid=2 / b_adapt=2 / b_bias=0 / direct=3 / weightb=1 / open_gop=0 / weightp=2 / keyint=250 / keyint_min=25 / scenecut=40 / intra_refresh=0 / rc_lookahead=50 / rc=2pass / mbtree=1 / bitrate=11571 / ratetol=1.0 / qcomp=0.60 / qpmin=0 / qpmax=69 / qpstep=4 / cplxblur=20.0 / qblur=0.5 / ip_ratio=1.40 / aq=1:1.00
Language
: English
Default
: Yes
Forced
: No
DURATION
: 00:38:41.419000000
NUMBER_OF_FRAMES : 69573
NUMBER_OF_BYTES : 3358017351
_STATISTICS_WRITING_APP : mkvmerge v7.9.0 ('Birds') 64bit
_STATISTICS_WRITING_DATE_UTC : 2015-06-19 07:56:40
_STATISTICS_TAGS : BPS DURATION NUMBER_OF_FRAMES NUMBER_OF_BYTES

Audio #1
ID : 2
Format
: DTS
Format/Info
: Digital Theater Systems
Format profile : 96/24 / Core
Mode
: 16
Format settings, Endianness : Big
Codec ID
: A_DTS
Duration
: 38mn 41s
Bit rate mode : Constant
Bit rate
: 1 509 Kbps
Channel(s)
: 6 channels
Channel positions: Front: L C R, Side: L R, LFE
Sampling rate : 96.0 KHz / 48.0 KHz
Bit depth
: 24 bits
Compression mode : Lossy
Stream size
: 418 MiB (10%)
Language
: English
Default
: Yes
Forced
: No

Audio #2
ID : 3
Format
: PCM
Codec ID
: A_PCM/INT/LIT
Duration
: 38mn 41s
Bit rate mode : Constant
Channel(s)
: 2 channels
Sampling rate : 48.0 KHz
Bit depth
: 24 bits
Default
: No
Forced
: No

Menu
00:00:00.000 : en:00:00:00.000
00:04:28.001 : en:00:04:28.001
00:08:33.713 : en:00:08:33.713
00:12:18.504 : en:00:12:18.504
00:14:49.689 : en:00:14:49.689
00:24:41.914 : en:00:24:41.914
00:29:40.278 : en:00:29:40.278
00:33:48.827 : en:00:33:48.827

General
Unique ID
: 178243091295657220689822081586069836494 (0x86185EE59506F99FBB33F855F0B912CE)
Complete name : G:\UP\Mix\The Rolling Stones - From the Vault The Marquee - Live in 1971\The.Rolling.Stones.From.The.Vault.The.Marquee.Club.Live.In.1971.2015.1080p.bonus.mkv
Format
: Matroska
Format version : Version 4 / Version 2
File size
: 2.07 GiB
Duration
: 21mn 57s
Overall bit rate : 13.5 Mbps
Encoded date : UTC 2015-06-19 17:36:26
Writing application

: mkvmerge v6.8.0 ('Theme for Great Cities') 64bit built on Mar 2 2014 21:34:26
Writing library : libebml v1.3.0 + libmatroska v1.4.1
DURATION
: 00:21:57.952000000
NUMBER_OF_FRAMES : 123558
NUMBER_OF_BYTES : 248598696
_STATISTICS_WRITING_APP : mkvmerge v7.9.0 ('Birds') 64bit
_STATISTICS_WRITING_DATE_UTC : 2015-06-19 09:07:21
_STATISTICS_TAGS : BPS DURATION NUMBER_OF_FRAMES NUMBER_OF_BYTES

Video
ID : 1
Format
: AVC
Format/Info
: Advanced Video Codec
Format profile : [email protected]
Format settings, CABAC : Yes
Format settings, ReFrames : 4 frames
Codec ID
: V_MPEG4/ISO/AVC
Duration
: 21mn 57s
Nominal bit rate : 9 699 Kbps
Width
: 1 440 pixels
Height
: 1 080 pixels
Display aspect ratio : 4:3
Frame rate mode : Constant
Frame rate
: 29.970 fps
Color space
: YUV
Chroma subsampling

: 4:2:0
Bit depth
: 8 bits
Scan type
: Progressive
Bits/(Pixel*Frame)

: 0.208
Writing library : x264 core 146 r2538 121396c
Encoding settings: cabac=1 / ref=4 / deblock=1:-1:-1 / analyse=0x3:0x113 / me=umh / subme=8 / psy=1 / psy_rd=1.00:0.15 / mixed_ref=1 / me_range=16 / chroma_me=1 / trellis=1 / 8x8dct=1 / cqm=0 / deadzone=21,11 / fast_pskip=0 / chroma_qp_offset=-3 / threads=6 / lookahead_threads=1 / sliced_threads=0 / nr=0 / decimate=1 / interlaced=0 / bluray_compat=0 / constrained_intra=0 / bframes=3 / b_pyramid=2 / b_adapt=2 / b_bias=0 / direct=3 / weightb=1 / open_gop=0 / weightp=2 / keyint=250 / keyint_min=25 / scenecut=40 / intra_refresh=0 / rc_lookahead=50 / rc=2pass / mbtree=1 / bitrate=9699 / ratetol=1.0 / qcomp=0.60 / qpmin=0 / qpmax=69 / qpstep=4 / cplxblur=20.0 / qblur=0.5 / ip_ratio=1.40 / aq=1:1.00
Language
: English
Default
: Yes
Forced
: No
DURATION
: 00:21:57.950000000
NUMBER_OF_FRAMES : 39499
NUMBER_OF_BYTES : 1598324033
_STATISTICS_WRITING_APP : mkvmerge v7.9.0 ('Birds') 64bit
_STATISTICS_WRITING_DATE_UTC : 2015-06-19 09:07:21
_STATISTICS_TAGS : BPS DURATION NUMBER_OF_FRAMES NUMBER_OF_BYTES

Audio #1
ID : 2
Format
: DTS
Format/Info
: Digital Theater Systems
Format profile : 96/24 / Core
Mode
: 16
Format settings, Endianness : Big
Codec ID
: A_DTS
Duration
: 21mn 57s
Bit rate mode : Constant
Bit rate
: 1 509 Kbps
Channel(s)
: 6 channels
Channel positions: Front: L C R, Side: L R, LFE
Sampling rate : 96.0 KHz / 48.0 KHz
Bit depth
: 24 bits
Compression mode : Lossy
Stream size
: 237 MiB (11%)
Language
: English
Default
: Yes
Forced
: No

Audio #2
ID : 3
Format
: PCM
Codec ID
: A_PCM/INT/LIT
Duration
: 21mn 57s
Bit rate mode : Constant
Channel(s)
: 2 channels
Sampling rate : 48.0 KHz
Bit depth
: 24 bits
Default
: No
Forced
: No

Menu
00:00:00.000 : en:00:00:00.000
00:04:49.489 : en:00:04:49.489
00:10:13.179 : en:00:10:13.179
00:17:15.668 : en:00:17:15.668

The Rolling Stones - From the Vault: The Marquee - Live in 1971 (2015) [BDRip, 1080p]

The Rolling Stones - From the Vault: The Marquee - Live in 1971 (2015) [BDRip, 1080p]

The Rolling Stones - From the Vault: The Marquee - Live in 1971 (2015) [BDRip, 1080p]

The Rolling Stones - From the Vault: The Marquee - Live in 1971 (2015) [BDRip, 1080p]

The Rolling Stones - From the Vault: The Marquee - Live in 1971 (2015) [BDRip, 1080p]

All thanks go to anbelk27



Download The Rolling Stones - From the Vault: The Marquee - Live in 1971 (2015):


DOWNLOAD LINKS:
Buy Premium To Support Me & Get Resumable Support & Max Speed


Links are Interchangeable - No Password - Single Extraction
Direct Download


Tags: Rolling, Stones, Marquee

The Rolling Stones - From the Vault: The Marquee - Live in 1971 (2015) [BDRip, 1080p] Fast Download via Rapidshare Hotfile Fileserve Filesonic Megaupload, The Rolling Stones - From the Vault: The Marquee - Live in 1971 (2015) [BDRip, 1080p] Torrents and Emule Download or anything related.
Dear visitor, you went to website as unregistered user.
We encourage you to Register or Login to website under your name.
Information
Members of Guest cannot leave comments.