Uriah Heep - Salisbury (1971) [1990, US, Mercury 811 389-2]

Category: Music | Comment: 0

Download Now

Uriah Heep - Salisbury (1971) [1990, US, Mercury 811 389-2]

Uriah Heep - Salisbury (1971/1990)
EAC Rip | FLAC (Img) + Cue + Log ~ 258 Mb | MP3 CBR320 ~ 116 Mb
Scans Included (JPG, 600 dpi) | RAR 5% Recovery
Prog/Hard/Classic Rock | Mercury #811 389-2

"Salisbury is the second album released by British rock band Uriah Heep. The album features forays into both jazz-fusion on "The Park", and progressive rock on the band's first large-scale composition, the 16-minute title track featuring a 24-piece orchestra. It also includes the largely acoustic ballad "Lady In Black." The connection of the artwork to the title is readily explained. Salisbury Plain in Wiltshire, England, is an Army training-area. On the front of the album sleeve is a British Chieftain tank. The original LP release was a gatefold-sleeve. Inside is a b/w picture of a British tank of the First World War, over which were printed Hensley's comments on each track. Later reissues would be in a single sleeve. The American release featured a different sleeve image, as did the original Canadian pressings. Future Canadian pressings used the UK artwork."

Official Website | Wiki | Discogs | All Music
***************

Uriah Heep - Salisbury (1971) [1990, US, Mercury 811 389-2]

Track List:

01. High Priestess [03:44]
02. The Park [05:46]
03. Time To Live [04:05]
04. Lady In Black [04:47]
05. Simon The Bullet Freak [03:28]
06. Salisbury [16:20]

Exact Audio Copy V1.0 beta 1 from 15. November 2010

EAC extraction logfile from 5. July 2015, 23:32

Uriah Heep / Salisbury

Used drive : MATSHITADVD-RAM UJ8A0AS Adapter: 0 ID: 1

Read mode : Secure
Utilize accurate stream : Yes
Defeat audio cache : Yes
Make use of C2 pointers : No

Read offset correction

: 102
Overread into Lead-In and Lead-Out : No
Fill up missing offset samples with silence : Yes
Delete leading and trailing silent blocks : No
Null samples used in CRC calculations : Yes
Used interface
: Native Win32 interface for Win NT & 2000

Used output format : Internal WAV Routines
Sample format : 44.100 Hz; 16 Bit; Stereo

TOC of the extracted CD Track | Start | Length | Start sector | End sector
--1 | 0:00.32 | 3:43.63 | 32 | 16819 2 | 3:44.20 | 5:45.40 | 16820 | 42734 3 | 9:29.60 | 4:04.57 | 42735 | 61091 4 | 13:34.42 | 4:46.73 | 61092 | 82614 5 | 18:21.40 | 3:27.70 | 82615 | 98209 6 | 21:49.35 | 16:19.72 | 98210 | 171706

Range status and errors

Selected range Filename C:\Users\Alex\Music\Uriah Heep - Salisbury.wav Peak level 99.9 %
Extraction speed 0.5 X
Range quality 100.0 %
Test CRC E30B1C64
Copy CRC E30B1C64
Copy OK

No errors occurred


AccurateRip summary

Track 1 accurately ripped (confidence 10) [99AD394D]
Track 2 accurately ripped (confidence 9) [0E7B9684]
Track 3 accurately ripped (confidence 9) [31547EFA]
Track 4 accurately ripped (confidence 9) [2FF7A780]
Track 5 accurately ripped (confidence 9) [8B701EA8]
Track 6 accurately ripped (confidence 9) [90470BEF]

All tracks accurately ripped

End of status report

==== Log checksum 20CFCF590DE625D7AEEED472D9B8F8C4156AC40B3C58578EECFF823E0CFEC38D ====

foobar2000 1.2.6 / Dynamic Range Meter 1.1.1
log date: 2015-07-06 10:04:32

Analyzed: Uriah Heep / Salisbury

DR Peak RMS Duration Track

DR11 -0.43 dB -14.43 dB 3:44 01-High Priestess
DR12 -2.68 dB -18.88 dB 5:46 02-The Park
DR12 -0.87 dB -14.93 dB 4:05 03-Time To Live
DR12 -1.17 dB -15.21 dB 4:47 04-Lady In Black
DR12 -1.21 dB -15.72 dB 3:28 05-Simon The Bullet Freak
DR12 0.00 dB -15.77 dB 16:20 06-Salisbury

Number of tracks: 6
Official DR value: DR12

Samplerate: 44100 Hz
Channels: 2
Bits per sample: 16
Bitrate: 816 kbps
Codec: FLAC

[CUETools log; Date: 06.07.2015 10:03:53; Version: 2.1.5]
Pregap length 00:00:32.
[CTDB TOCID: cHg0aOq.k7tX3FOFfOQ6o.5InEI-] found.
Track | CTDB Status
1 | (3/3) Accurately ripped
2 | (3/3) Accurately ripped
3 | (3/3) Accurately ripped
4 | (3/3) Accurately ripped
5 | (3/3) Accurately ripped
6 | (2/3) Accurately ripped, or (1/3) differs in 3 samples @05:01:16
[AccurateRip ID: 0007387b-0027d561-3308f106] found.
Track [ CRC | V2 ] Status
01 [99ad394d|ed6cae12] (17+10/48) Accurately ripped
02 [0e7b9684|210a1681] (17+09/47) Accurately ripped
03 [31547efa|4eb31549] (17+09/47) Accurately ripped
04 [2ff7a780|241f149d] (17+09/47) Accurately ripped
05 [8b701ea8|edf4aeb7] (17+09/47) Accurately ripped
06 [90470bef|50554126] (16+09/44) Accurately ripped
Offsetted by -901:
01 [c7887347] (04/48) Accurately ripped
02 [cec73cb8] (04/47) Accurately ripped
03 [74a89cc9] (04/47) Accurately ripped
04 ba119c1 (04/47) Accurately ripped
05 [4efa6c01] (04/47) Accurately ripped
06 [8548bc6b] (03/44) Accurately ripped
Offsetted by -462:
01 [d37b783a] (11/48) Accurately ripped
02 [84ec527c] (11/47) Accurately ripped
03 [2bd50cf2] (11/47) Accurately ripped
04 [70665813] (11/47) Accurately ripped
05 [ece6fbc3] (11/47) Accurately ripped
06 [42ba6c51] (11/44) Accurately ripped

Track Peak [ CRC32 ] [W/O NULL] [ LOG ]
-- 99,9 [E30B1C64] [769ABAB6] CRC32
01 95,1 [03AD209C] [87C33BDC]
02 73,4 [E0855ECF] [D8CA66CB]
03 90,4 [E6EAC324] [05FC3E20]
04 87,4 [3BA9BFCD] [164AAFA7]
05 87,0 [709362CE] 105D54B
06 99,9 [CD87BDE8] [1A44585A]

Uriah Heep - Salisbury (1971) [1990, US, Mercury 811 389-2]


DOWNLOAD LINKS:
Buy Premium To Support Me & Get Resumable Support & Max Speed


Links are Interchangeable - No Password - Single Extraction
Direct Download


Tags: Salisbury, Mercury

Uriah Heep - Salisbury (1971) [1990, US, Mercury 811 389-2] Fast Download via Rapidshare Hotfile Fileserve Filesonic Megaupload, Uriah Heep - Salisbury (1971) [1990, US, Mercury 811 389-2] Torrents and Emule Download or anything related.
Dear visitor, you went to website as unregistered user.
We encourage you to Register or Login to website under your name.
Information
Members of Guest cannot leave comments.