Bruce Brubaker - Inner Cities: Music for Piano by John Adams and Alvin Curran (2003)

Category: Music | Comment: 0

Download Now

Bruce Brubaker - Inner Cities: Music for Piano by John Adams and Alvin Curran (2003)

Bruce Brubaker - Inner Cities: Music for Piano by John Adams and Alvin Curran (2003)
EAC | FLAC | Image (Cue&Log) ~ 279 Mb (incl 5%) | Mp3 (CBR320) ~ 214 Mb (incl 5%) | Scans included
Genre: Classical, Minimalism | Label: Arabesque Recordings | # Z6776 | Time: 01:19:06

"Bruce Brubaker artistic skill and understanding of this music is beyond reproach and will thrill any fan of the collected composers work on this CD. The sound quality is outstanding as well. Bruce Brubaker has recorded two CDs on the Arabesque label in a continuing series exploring modern American piano music. The most recent, Inner Cities , was released in September 2003, and includes Brubaker's transcription of Pat Nixon's aria from Adams's opera, Nixon in China . The previous CD, Glass Cage , with pieces by Glass and Cage, was named one of the ten best releases of 2000 by The New Yorker magazine."

Bruce Brubaker - Inner Cities: Music for Piano by John Adams and Alvin Curran (2003)

Bruce Brubaker - Inner Cities: Music for Piano by John Adams and Alvin Curran (2003)
EAC | FLAC | Image (Cue&Log) ~ 279 Mb (incl 5%) | Mp3 (CBR320) ~ 214 Mb (incl 5%) | Scans included
Genre: Classical, Minimalism | Label: Arabesque Recordings | # Z6776 | Time: 01:19:06

"Bruce Brubaker artistic skill and understanding of this music is beyond reproach and will thrill any fan of the collected composers work on this CD. The sound quality is outstanding as well. Bruce Brubaker has recorded two CDs on the Arabesque label in a continuing series exploring modern American piano music. The most recent, Inner Cities , was released in September 2003, and includes Brubaker's transcription of Pat Nixon's aria from Adams's opera, Nixon in China . The previous CD, Glass Cage , with pieces by Glass and Cage, was named one of the ten best releases of 2000 by The New Yorker magazine.

Review by Diane, Amazon
"




Tracklist:

01. Adams - Phrygian Gates (live recording) (26:54)
02. Curran - Endangered Species (07:28)
03. Adams - 'Pat's Aria' (from Nixon in China) (13:59)
04. Adams - China Gates (05:24)
05. Curran - Inner Cities I (24:14)
06. unknown (01:05)


Exact Audio Copy V1.0 beta 1 from 15. November 2010

EAC extraction logfile from 7. December 2012, 23:36

Bruce Brubaker / Inner Cities: Music for Piano by John Adams and Alvin Curran

Used drive : Optiarc DVD RW AD-7203A Adapter: 4 ID: 1

Read mode : Secure
Utilize accurate stream : Yes
Defeat audio cache : Yes
Make use of C2 pointers : No

Read offset correction

: 48
Overread into Lead-In and Lead-Out : No
Fill up missing offset samples with silence : Yes
Delete leading and trailing silent blocks : No
Null samples used in CRC calculations : Yes
Used interface
: Native Win32 interface for Win NT & 2000

Used output format : User Defined Encoder
Selected bitrate : 128 kBit/s
Quality : High
Add ID3 tag : No
Command line compressor : C:\Program Files\FLAC\flac.exe
Additional command line options : -T "COMMENT=Ripped by GFox" -8 -V %s

TOC of the extracted CD Track | Start | Length | Start sector | End sector
--1 | 0:01.00 | 26:54.55 | 75 | 121179 2 | 26:55.55 | 7:28.09 | 121180 | 154788 3 | 34:23.64 | 13:59.58 | 154789 | 217771 4 | 48:23.47 | 5:24.15 | 217772 | 242086 5 | 53:47.62 | 24:14.37 | 242087 | 351173 6 | 78:02.24 | 1:05.33 | 351174 | 356081

Range status and errors

Selected range Filename D:\EAC\Bruce Brubaker - Inner Cities- Music for Piano by John Adams and Alvin Curran.wav Peak level 100.0 %
Extraction speed 0.0 X
Range quality 100.0 %
Test CRC 18256383
Copy CRC 18256383
Copy OK

No errors occurred


AccurateRip summary

Track 1 accurately ripped (confidence 2) [6AE2102C]
Track 2 accurately ripped (confidence 2) F966BD8
Track 3 accurately ripped (confidence 2) [FE3113DD]
Track 4 not present in database
Track 5 accurately ripped (confidence 1) [190A763F]
Track 6 accurately ripped (confidence 1) [2B210686]

5 track(s) accurately ripped
1 track(s) not present in the AccurateRip database

Some tracks could not be verified as accurate

End of status report

==== Log checksum 037C6C75127B9132CF9C753A88E6AC05397C16D0F38AF5F65659BBD1839E6844 ====

foobar2000 1.2 / Dynamic Range Meter 1.1.1
log date: 2015-07-04 21:11:03

Analyzed: Bruce Brubaker / Inner Cities: Music for Piano by John Adams and Alvin Curran

DR Peak RMS Duration Track

DR13 -0.13 dB -20.50 dB 26:55 01-Adams - Phrygian Gates (live recording)
DR15 -12.63 dB -34.18 dB 7:28 02-Curran - Endangered Species
DR17 -2.43 dB -24.38 dB 14:00 03-Adams - 'Pat's Aria' (from Nixon in China)
DR11 -4.02 dB -21.90 dB 5:24 04-Adams - China Gates
DR24 0.00 dB -30.34 dB 24:14 05-Curran - Inner Cities I
DR15 -15.80 dB -39.94 dB 1:05 06-unknown

Number of tracks: 6
Official DR value: DR16

Samplerate: 44100 Hz
Channels: 2
Bits per sample: 16
Bitrate: 430 kbps
Codec: FLAC

Bruce Brubaker - Inner Cities: Music for Piano by John Adams and Alvin Curran (2003)

Password: designol


DOWNLOAD LINKS:
Buy Premium To Support Me & Get Resumable Support & Max Speed


Links are Interchangeable - No Password - Single Extraction
Direct Download


Tags: Brubaker, Cities, Curran

Bruce Brubaker - Inner Cities: Music for Piano by John Adams and Alvin Curran (2003) Fast Download via Rapidshare Hotfile Fileserve Filesonic Megaupload, Bruce Brubaker - Inner Cities: Music for Piano by John Adams and Alvin Curran (2003) Torrents and Emule Download or anything related.
Dear visitor, you went to website as unregistered user.
We encourage you to Register or Login to website under your name.
Information
Members of Guest cannot leave comments.