Colin Vallon Trio - Le Vent (2014) {ECM 2347} [Re-Up]

Category: Music | Comment: 0

Download Now

Colin Vallon Trio - Le Vent (2014) {ECM 2347} [Re-Up]

Colin Vallon Trio - Le Vent (2014) {ECM 2347}
EAC 1.0b3 | FLAC tracks level 8 | Cue+Log+M3U | Full Scans 300dpi | 267MB + 5% Recovery
Genre: Jazz

"Le Vent, recorded in April 2013 at Oslo's Rainbow Studio, is the second ECM album from the Colin Vallon Trio. Like the wind celebrated in its title track, the group has a subtle, insinuating power. Emerging from a still and silent place, its music can breathe gently, or steadily build pressure until attaining an eruptive forcefulness. This combining of poetic compression and quiet relentlessness was evident on the ECM debut Rruga three years ago, but with leader Vallon now writing almost all of the repertoire (although opening tune "Juuichi" is by Patrice Moret), and new drummer Julian Sartorius detailing its floating rhythms, the Swiss trio has entered a brave new space where touch and inflection are decisively more important than soloistic gesture."

Track List
01. Juuichi 6:10
02. Immobile 6:26
03. Le Vent 5:53
04. Cendre 6:07
05. Fade 5:13
06. Goodbye 5:30
07. Le Quai 5:10
08. Pixels 4:51
09. Altalena 3:53
10. Rouge 6:07
11. Styx 2:24
12. Coriolis 2:06

musicians
Colin Vallon - piano
Patrice Moret - double bass
Julian Sartorius - drums

Produced by Manfred Eicher

Exact Audio Copy V1.0 beta 3 from 29. August 2011

EAC extraction logfile from 8. March 2014, 12:07

Colin Vallon Trio / Le Vent [ECM 2347]

Used drive : PLEXTOR DVDR PX-L890SA Adapter: 2 ID: 1

Read mode : Secure
Utilize accurate stream : Yes
Defeat audio cache : Yes
Make use of C2 pointers : No

Read offset correction

: 6
Overread into Lead-In and Lead-Out : No
Fill up missing offset samples with silence : Yes
Delete leading and trailing silent blocks : No
Null samples used in CRC calculations : Yes
Used interface
: Native Win32 interface for Win NT & 2000
Gap handling
: Appended to previous track

Used output format : User Defined Encoder
Selected bitrate : 768 kBit/s
Quality : High
Add ID3 tag : No
Command line compressor : C:\Program Files (x86)\Exact Audio Copy\FLAC\FLAC.EXE
Additional command line options : -8 -V -T "ARTIST=%artist%" -T "TITLE=%title%" -T "ALBUM=%albumtitle%" -T "DATE=%year%" -T "TRACKNUMBER=%tracknr%" -T "TOTALTRACKS=%numtracks%" -T "GENRE=%genre%" -T "ALBUMARTIST=%albumartist%" -T "ALBUM ARTIST=%albumartist%" -T "COMMENT=EAC Secure Mode, Test & Copy, AccurateRip, FLAC -8" %source%

TOC of the extracted CD Track | Start | Length | Start sector | End sector
--1 | 0:00.00 | 6:10.71 | 0 | 27820 2 | 6:10.71 | 6:26.42 | 27821 | 56812 3 | 12:37.38 | 5:53.56 | 56813 | 83343 4 | 18:31.19 | 6:09.24 | 83344 | 111042 5 | 24:40.43 | 5:17.14 | 111043 | 134831 6 | 29:57.57 | 5:34.21 | 134832 | 159902 7 | 35:32.03 | 5:11.60 | 159903 | 183287 8 | 40:43.63 | 4:53.73 | 183288 | 205335 9 | 45:37.61 | 3:56.17 | 205336 | 223052
10 | 49:34.03 | 6:07.15 | 223053 | 250592
11 | 55:41.18 | 2:25.60 | 250593 | 261527
12 | 58:07.03 | 2:06.03 | 261528 | 270980

Track 1 Filename H:\Flac Rips\01 - Juuichi.wav Pre-gap length 0:00:02.00 Peak level 99.0 %
Extraction speed 3.8 X
Track quality 100.0 %
Test CRC B05869ED
Copy CRC B05869ED
Accurately ripped (confidence 1) [7AE8E5E0] (AR v2)
Copy OK

Track 2 Filename H:\Flac Rips\02 - Immobile.wav Peak level 98.9 %
Extraction speed 4.1 X
Track quality 100.0 %
Test CRC FF8D83FC
Copy CRC FF8D83FC
Accurately ripped (confidence 1) [01D424E5] (AR v2)
Copy OK

Track 3 Filename H:\Flac Rips\03 - Le Vent.wav Peak level 98.9 %
Extraction speed 4.6 X
Track quality 100.0 %
Test CRC D63D0190
Copy CRC D63D0190
Accurately ripped (confidence 1) [601BD67E] (AR v2)
Copy OK

Track 4 Filename H:\Flac Rips\04 - Cendre.wav Pre-gap length 0:00:00.53 Peak level 84.3 %
Extraction speed 5.4 X
Track quality 100.0 %
Test CRC B3FFE2F2
Copy CRC B3FFE2F2
Accurately ripped (confidence 1) [87510F8B] (AR v2)
Copy OK

Track 5 Filename H:\Flac Rips\05 - Fade.wav Pre-gap length 0:00:02.04 Peak level 97.2 %
Extraction speed 5.7 X
Track quality 100.0 %
Test CRC 48ED627E
Copy CRC 48ED627E
Accurately ripped (confidence 1) [8F031A32] (AR v2)
Copy OK

Track 6 Filename H:\Flac Rips\06 - Goodbye.wav Pre-gap length 0:00:04.06 Peak level 98.8 %
Extraction speed 5.0 X
Track quality 99.9 %
Test CRC 80B1F99E
Copy CRC 80B1F99E
Accurately ripped (confidence 1) [71F37838] (AR v2)
Copy OK

Track 7 Filename H:\Flac Rips\07 - Le Quai.wav Pre-gap length 0:00:03.52 Peak level 98.8 %
Extraction speed 6.4 X
Track quality 100.0 %
Test CRC BC306A00
Copy CRC BC306A00
Accurately ripped (confidence 1) [9E20F8DA] (AR v2)
Copy OK

Track 8 Filename H:\Flac Rips\08 - Pixels.wav Pre-gap length 0:00:01.50 Peak level 98.9 %
Extraction speed 6.5 X
Track quality 100.0 %
Test CRC 9D1DAD44
Copy CRC 9D1DAD44
Accurately ripped (confidence 1) [503E8796] (AR v2)
Copy OK

Track 9 Filename H:\Flac Rips\09 - Altalena.wav Pre-gap length 0:00:02.26 Peak level 73.4 %
Extraction speed 6.6 X
Track quality 100.0 %
Test CRC 0D24A729
Copy CRC 0D24A729
Accurately ripped (confidence 1) [93ACAD8E] (AR v2)
Copy OK

Track 10 Filename H:\Flac Rips\10 - Rouge.wav Pre-gap length 0:00:02.39 Peak level 98.8 %
Extraction speed 6.1 X
Track quality 99.9 %
Test CRC FF00E6D6
Copy CRC FF00E6D6
Accurately ripped (confidence 1) [94A44218] (AR v2)
Copy OK

Track 11 Filename H:\Flac Rips\11 - Styx.wav Peak level 49.3 %
Extraction speed 6.5 X
Track quality 100.0 %
Test CRC 1D37D111
Copy CRC 1D37D111
Accurately ripped (confidence 1) [4DB9790E] (AR v2)
Copy OK

Track 12 Filename H:\Flac Rips\12 - Coriolis.wav Pre-gap length 0:00:01.06 Peak level 38.3 %
Extraction speed 6.4 X
Track quality 100.0 %
Test CRC FC8024BB
Copy CRC FC8024BB
Accurately ripped (confidence 1) [CAEBD9F6] (AR v2)
Copy OK

All tracks accurately ripped

No errors occurred

End of status report

==== Log checksum F18B92E8C97DE06C7F1E631E780832D8D87352A694BBDF3FE81DC04CA1AE493A ====

Analyzed: Colin Vallon Trio / Le Vent [ECM 2347]

DR Peak RMS Duration Track

DR13 -0.08 dB -17.13 dB 6:11 01-Juuichi
DR12 -0.09 dB -16.23 dB 6:27 02-Immobile
DR12 -0.10 dB -17.36 dB 5:54 03-Le Vent
DR11 -1.48 dB -18.19 dB 6:09 04-Cendre
DR14 -0.25 dB -20.73 dB 5:17 05-Fade
DR16 -0.10 dB -20.62 dB 5:34 06-Goodbye
DR15 -0.10 dB -23.16 dB 5:12 07-Le Quai
DR14 -0.09 dB -16.99 dB 4:54 08-Pixels
DR13 -2.68 dB -22.54 dB 3:56 09-Altalena
DR14 -0.10 dB -19.09 dB 6:07 10-Rouge
DR14 -6.13 dB -27.35 dB 2:26 11-Styx
DR12 -8.33 dB -25.22 dB 2:06 12-Coriolis

Number of tracks: 12
Official DR value: DR13

Samplerate: 44100 Hz
Channels: 2
Bits per sample: 16
Bitrate: 649 kbps
Codec: FLAC

Colin Vallon Trio - Le Vent (2014) {ECM 2347} [Re-Up]

Colin Vallon Trio - Le Vent (2014) {ECM 2347} [Re-Up]

Colin Vallon Trio - Le Vent (2014) {ECM 2347} [Re-Up]

Rip by jlgt


DOWNLOAD LINKS:
Buy Premium To Support Me & Get Resumable Support & Max Speed


Links are Interchangeable - No Password - Single Extraction
Direct Download


Tags: Vallon

Colin Vallon Trio - Le Vent (2014) {ECM 2347} [Re-Up] Fast Download via Rapidshare Hotfile Fileserve Filesonic Megaupload, Colin Vallon Trio - Le Vent (2014) {ECM 2347} [Re-Up] Torrents and Emule Download or anything related.
Dear visitor, you went to website as unregistered user.
We encourage you to Register or Login to website under your name.
Information
Members of Guest cannot leave comments.