W.A. Mozart - Concerto for 2 Pianos KV 365, Concerto for 3 Pianos KV 242, Piano Concerto KV 466 (2006)

Category: Music | Comment: 0

Download Now

W.A. Mozart - Concerto for 2 Pianos KV 365, Concerto for 3 Pianos KV 242, Piano Concerto KV 466 (2006)

W.A. Mozart - Concerto for 2 Pianos KV 365, Concerto for 3 Pianos KV 242, Piano Concerto KV 466 (2006)
Daniel Barenboim, András Schiff, Sir Georg Solti, English Chamber Orchestra

EAC | FLAC | Image (Cue&Log) ~ 315 Mb (incl 5%) | Scans included | Time: 01:18:16
Genre: Classical | Label: Decca/Universal | # 476 2451

"This might just be one of the most intriguing of all of the Mozart multi-pianos concertos on record. Here we have a rare collaboration not found on any other recording between George Solti and Daniel Barenboim, where the two conductors face each other playing the concerto for two pianos K.365; the conducting of the English Camber Orchestra from the piano on this Decca recording is at the hands of George Solti."



Tracklist:

Concerto for 2 Pianos KV 365
01. I. Allegro (09:49)
02. II. Andante (07:09)
03. III. Rondeaux. Allegro (06:42)
- Daniel Barenboim, piano
- Sir Georg Solti, piano & conducting
- English Chamber Orchestra

Concerto for 3 Pianos KV 242
04. I. Allegro (08:17)
05. II. Adagio (07:58)
06. III. Rondeau. Tempo di menuetto (05:48)
- Andras Schiff, piano
- Daniel Barenboim, piano
- Sir Georg Solti, piano & conducting
- English Chamber Orchestra

Piano Concerto KV 466
07. I. Allegro (14:53)
08. II. Romance (09:38)
09. III. Rondo. Allegro assai (07:59)
- Sir Georg Solti, piano & conducting
- English Chamber Orchestra


Exact Audio Copy V1.0 beta 1 from 15. November 2010

EAC extraction logfile from 3. August 2013, 12:33

Wolfgang Amadeus Mozart / Piano Concertos (Solti, Schiff, Barenboim)

Used drive : Optiarc DVD RW AD-7203A Adapter: 4 ID: 1

Read mode : Secure
Utilize accurate stream : Yes
Defeat audio cache : Yes
Make use of C2 pointers : No

Read offset correction

: 48
Overread into Lead-In and Lead-Out : No
Fill up missing offset samples with silence : Yes
Delete leading and trailing silent blocks : No
Null samples used in CRC calculations : Yes
Used interface
: Native Win32 interface for Win NT & 2000

Used output format : User Defined Encoder
Selected bitrate : 128 kBit/s
Quality : High
Add ID3 tag : No
Command line compressor : C:\Program Files\FLAC\flac.exe
Additional command line options : -T "COMMENT=Ripped by GFox" -8 -V %s

TOC of the extracted CD Track | Start | Length | Start sector | End sector
--1 | 0:00.32 | 9:49.00 | 32 | 44206 2 | 9:49.32 | 7:09.50 | 44207 | 76431 3 | 16:59.07 | 6:42.38 | 76432 | 106619 4 | 23:41.45 | 8:17.37 | 106620 | 143931 5 | 31:59.07 | 7:58.00 | 143932 | 179781 6 | 39:57.07 | 5:48.63 | 179782 | 205944 7 | 45:45.70 | 14:53.12 | 205945 | 272931 8 | 60:39.07 | 9:38.00 | 272932 | 316281 9 | 70:17.07 | 7:59.63 | 316282 | 352269

Range status and errors

Selected range Filename D:\EAC\Wolfgang Amadeus Mozart - Piano Concertos (Solti, Schiff, Barenboim).wav Peak level 94.8 %
Extraction speed 0.3 X
Range quality 100.0 %
Test CRC 212B9033
Copy CRC 212B9033
Copy OK

No errors occurred


AccurateRip summary

Track 1 cannot be verified as accurate (confidence 17) [196D57BF], AccurateRip returned [2FB30CBD]
Track 2 cannot be verified as accurate (confidence 16) [87A05C71], AccurateRip returned [570778FF]
Track 3 cannot be verified as accurate (confidence 17) [5E0D9E9F], AccurateRip returned [D5B0ECB3]
Track 4 cannot be verified as accurate (confidence 17) [4EDC3166], AccurateRip returned [D68C26A2]
Track 5 cannot be verified as accurate (confidence 17) [D51296EB], AccurateRip returned [E453AC89]
Track 6 cannot be verified as accurate (confidence 17) [9D10CD34], AccurateRip returned [606D5A2B]
Track 7 cannot be verified as accurate (confidence 14) 37E0D2F, AccurateRip returned [6C08A981]
Track 8 cannot be verified as accurate (confidence 17) [0E149519], AccurateRip returned [F82B33CB]
Track 9 cannot be verified as accurate (confidence 16) [560BC3AB], AccurateRip returned DA611A6

No tracks could be verified as accurate
You may have a different pressing from the one(s) in the database

End of status report

==== Log checksum 6EAAF24DFD79C70706AAE51A4C6A63928A598EAC6F9820432D554477AC01D282 ====

foobar2000 1.2 / Dynamic Range Meter 1.1.1
log date: 2015-07-08 01:26:55

Analyzed: Wolfgang Amadeus Mozart / Piano Concertos (Solti, Schiff, Barenboim)

DR Peak RMS Duration Track

DR15 -1.10 dB -21.16 dB 9:49 01-Concerto for 2 Pianos KV 365 - I. Allegro
DR16 -4.73 dB -25.72 dB 7:10 02-Concerto for 2 Pianos KV 365 - II. Andante
DR16 -0.46 dB -21.40 dB 6:43 03-Concerto for 2 Pianos KV 365 - III. Rondeaux. Allegro
DR14 -2.52 dB -22.19 dB 8:17 04-Concerto for 3 Pianos KV 242 - I. Allegro
DR14 -6.86 dB -25.65 dB 7:58 05-Concerto for 3 Pianos KV 242 - II. Adagio
DR15 -3.62 dB -23.47 dB 5:49 06-Concerto for 3 Pianos KV 242 - III. Rondeau. Tempo di menuetto
DR14 -3.88 dB -22.94 dB 14:53 07-Piano Concerto KV 466 - I. Allegro
DR16 -3.13 dB -24.62 dB 9:38 08-Piano Concerto KV 466 - II. Romance
DR13 -0.75 dB -21.67 dB 8:00 09-Piano Concerto KV 466 - III. Rondo. Allegro assai

Number of tracks: 9
Official DR value: DR15

Samplerate: 44100 Hz
Channels: 2
Bits per sample: 16
Bitrate: 507 kbps
Codec: FLAC

W.A. Mozart - Concerto for 2 Pianos KV 365, Concerto for 3 Pianos KV 242, Piano Concerto KV 466 (2006)

All thanks to original releaser - GFox
Password: designol

DOWNLOAD LINKS:
Buy Premium To Support Me & Get Resumable Support & Max Speed


Links are Interchangeable - No Password - Single Extraction
Direct Download


Tags: Mozart, Concerto, Pianos, Concerto, Pianos, Concerto

W.A. Mozart - Concerto for 2 Pianos KV 365, Concerto for 3 Pianos KV 242, Piano Concerto KV 466 (2006) Fast Download via Rapidshare Hotfile Fileserve Filesonic Megaupload, W.A. Mozart - Concerto for 2 Pianos KV 365, Concerto for 3 Pianos KV 242, Piano Concerto KV 466 (2006) Torrents and Emule Download or anything related.
Dear visitor, you went to website as unregistered user.
We encourage you to Register or Login to website under your name.
Information
Members of Guest cannot leave comments.