Tibet - Tibet (1979) [Reissue 2005]

Category: Music | Comment: 0

Download Now

Tibet - Tibet (1979) [Reissue 2005]

Tibet - Tibet (1979) [Reissue 2005]
EAC Rip | FLAC (tracks+.cue+log) - 240 MB | MP3 CBR 320 kbps (LAME 3.93) - 92 MB | Covers - 77 MB
Genre: Progressive Rock | RAR 3% Rec. | Label: Musea/MALS (FGBG 4115.AR/MALS 045)

"Lots of hammond and mellotron and the classic taste of German bands like Eloy or Novalis. Very good, specially for 70's sound fans. It was a band that, in the beginnings, started playing indian music, but changed the style due the difficult to play perfectly some instruments typical from that kind of music. Tibet disappeared in 1980 because, like many prog bands, members couldn't live with the music fees."

Tracklist:
01. Fight Back
02. City By The Sea
03. White Ships And Icebergs
04. Seaside Evening
05. Take What's Yours
06. Eagles
07. No More Time

Total time: 38:49

Exact Audio Copy V1.0 beta 3 from 29. August 2011

EAC extraction logfile from 2. May 2015, 12:00

Tibet / Tibet

Used drive : HL-DT-STDVDRAM GH24NS95 Adapter: 3 ID: 0

Read mode : Secure
Utilize accurate stream : Yes
Defeat audio cache : Yes
Make use of C2 pointers : No

Read offset correction

: 6
Overread into Lead-In and Lead-Out : No
Fill up missing offset samples with silence : Yes
Delete leading and trailing silent blocks : No
Null samples used in CRC calculations : Yes
Used interface
: Native Win32 interface for Win NT & 2000
Gap handling
: Appended to previous track

Used output format : User Defined Encoder
Selected bitrate : 128 kBit/s
Quality : High
Add ID3 tag : Yes
Command line compressor : C:\Program Files\FLAC\flac.exe
Additional command line options : -6 -V -T "ARTIST=%artist%" -T "TITLE=%title%" -T "ALBUM=%albumtitle%" -T "DATE=%year%" -T "TRACKNUMBER=%tracknr%" -T "GENRE=%genre%" -T "COMMENT=%comment%" %hascover%--picture="%coverfile%"%hascover% %source% -o %dest%

TOC of the extracted CD Track | Start | Length | Start sector | End sector
--1 | 0:00.00 | 5:02.18 | 0 | 22667 2 | 5:02.18 | 4:26.65 | 22668 | 42682 3 | 9:29.08 | 6:18.15 | 42683 | 71047 4 | 15:47.23 | 4:16.25 | 71048 | 90272 5 | 20:03.48 | 7:26.65 | 90273 | 123787 6 | 27:30.38 | 6:08.30 | 123788 | 151417 7 | 33:38.68 | 5:30.65 | 151418 | 176232

Track 1 Filename F:\Extract Audio Copy\by fovit\01 - Fight Back.wav Pre-gap length 0:00:02.00 Peak level 94.5 %
Extraction speed 3.8 X
Track quality 100.0 %
Copy CRC A99792E8
Accurately ripped (confidence 2) [1C12D4C6] (AR v2)
Copy OK

Track 2 Filename F:\Extract Audio Copy\by fovit\02 - City By The Sea.wav Peak level 85.5 %
Extraction speed 1.2 X
Track quality 100.0 %
Copy CRC 96256E50
Accurately ripped (confidence 2) [0F048B6D] (AR v2)
Copy OK

Track 3 Filename F:\Extract Audio Copy\by fovit\03 - White Ships And Icebergs.wav Peak level 89.1 %
Extraction speed 1.4 X
Track quality 100.0 %
Copy CRC B95CC35A
Accurately ripped (confidence 2) [04E78B55] (AR v2)
Copy OK

Track 4 Filename F:\Extract Audio Copy\by fovit\04 - Seaside Evening.wav Peak level 94.8 %
Extraction speed 1.4 X
Track quality 100.0 %
Copy CRC 5E9A0F5C
Accurately ripped (confidence 2) [DBDEF096] (AR v2)
Copy OK

Track 5 Filename F:\Extract Audio Copy\by fovit\05 - Take What's Yours.wav Peak level 100.0 %
Extraction speed 1.5 X
Track quality 99.9 %
Copy CRC 9C20BF0C
Accurately ripped (confidence 2) [D2E708C6] (AR v2)
Copy OK

Track 6 Filename F:\Extract Audio Copy\by fovit\06 - Eagles.wav Peak level 99.7 %
Extraction speed 1.8 X
Track quality 100.0 %
Copy CRC 0FB13CD1
Accurately ripped (confidence 2) [81A8E806] (AR v2)
Copy OK

Track 7 Filename F:\Extract Audio Copy\by fovit\07 - No More Time.wav Peak level 84.0 %
Extraction speed 1.9 X
Track quality 100.0 %
Copy CRC 2F124114
Accurately ripped (confidence 2) [A92FE088] (AR v2)
Copy OK

All tracks accurately ripped

No errors occurred

End of status report

==== Log checksum 5A1C0FD4BE773E81A654F7FCD9C24B8B9585FDD814149C80A257C999A27FAE77 ====

[CUETools log; Date: 13.07.2015 13:56:34; Version: 2.1.4]
[CTDB TOCID: hLpX.tqKuANwC51nNJEogx4xLag-] found.
Track | CTDB Status
1 | (2/2) Accurately ripped
2 | (2/2) Accurately ripped
3 | (2/2) Accurately ripped
4 | (2/2) Accurately ripped
5 | (2/2) Accurately ripped
6 | (2/2) Accurately ripped
7 | (2/2) Accurately ripped
[AccurateRip ID: 000a58df-003ee375-46092d07] found.
Track [ CRC | V2 ] Status
01 [3d458403|1c12d4c6] (0+3/3) Accurately ripped
02 [9c76d974|0f048b6d] (0+3/3) Accurately ripped
03 [95c37efd|04e78b55] (0+3/3) Accurately ripped
04 [ebc3ec6e|dbdef096] (0+3/3) Accurately ripped
05 [027ad69a|d2e708c6] (0+3/3) Accurately ripped
06 [a067d31c|81a8e806] (0+3/3) Accurately ripped
07 [111542c5|a92fe088] (0+3/3) Accurately ripped
Offsetted by -60:
01 [d87c8bbb] (0/3) No match (V2 was not tested)
02 [1f9f9554] (0/3) No match (V2 was not tested)
03 [113468f5] (0/3) No match (V2 was not tested)
04 [a1fbdc82] (0/3) No match (V2 was not tested)
05 [e4acad1a] (0/3) No match (V2 was not tested)
06 [9fb8eaf4] (0/3) No match (V2 was not tested)
07 [792067a5] (0/3) No match (V2 was not tested)

Track Peak [ CRC32 ] [W/O NULL] [ LOG ]
-- 100,0 [4D2B2CD6] [4DCED55B]
01 94,5 [A99792E8] [90E6FBEB] CRC32
02 85,5 [96256E50] [E78FD07B] CRC32
03 89,1 95CC35A [CF91648A] CRC32
04 94,8 [5E9A0F5C] [4C67DA8A] CRC32
05 100,0 [9C20BF0C] [7C2989AD] CRC32
06 99,7 [0FB13CD1] [3C6DBA01] CRC32
07 84,0 [2F124114] [879FE97B] CRC32
Thanks to Fovit
DOWNLOAD LINKS:
Buy Premium To Support Me & Get Resumable Support & Max Speed


Links are Interchangeable - No Password - Single Extraction
Direct Download


Tags: Reissue

Tibet - Tibet (1979) [Reissue 2005] Fast Download via Rapidshare Hotfile Fileserve Filesonic Megaupload, Tibet - Tibet (1979) [Reissue 2005] Torrents and Emule Download or anything related.
Dear visitor, you went to website as unregistered user.
We encourage you to Register or Login to website under your name.
Information
Members of Guest cannot leave comments.