David Munyon - Pretty Blue (2011, Stockfisch Rec. # SFR 357.6072.2)

Category: Music | Comment: 0

Download Now


David Munyon - Pretty Blue (2011, Stockfisch Rec. # SFR 357.6072.2)
David Munyon - Pretty Blue
EAC+LOG+CUE | FLAC (tracks): 389 MB | Artwork: 70 MB | 5% Recovery Info
Label/Cat#: Stockfisch Records # SFR 357.6072.2 | Country/Year: Germany 2011
Genre: Folk, Acoustic | Style: Singer/Songwriter

""...It is an irrefutable fact that within the American singer-songwriter tradition he is on par with such luminaries as Bob Dylan and Townes van Zandt, a fact which far too few music-lovers have discovered for themselves. Brian Wilson quotes Munyon as being "probably one of the best songwriters ever!" Enough said.""



David Munyon - Pretty Blue (2011, Stockfisch Rec. # SFR 357.6072.2)



Exact Audio Copy V1.0 beta 2 from 29. April 2011

EAC extraction logfile from 13. July 2011, 21:54

David Munyon / David Munyon - Pretty Blue

Used drive : PLEXTOR CD-R PREMIUM2 Adapter: 0 ID: 0

Read mode : Secure
Utilize accurate stream : Yes
Defeat audio cache : Yes
Make use of C2 pointers : No

Read offset correction

: 30
Overread into Lead-In and Lead-Out : Yes
Fill up missing offset samples with silence : Yes
Delete leading and trailing silent blocks : No
Null samples used in CRC calculations : Yes
Used interface
: Installed external ASPI interface
Gap handling
: Appended to previous track

Used output format : User Defined Encoder
Selected bitrate : 1024 kBit/s
Quality : High
Add ID3 tag : No
Command line compressor : C:\Program Files\Exact Audio Copy\Flac\flac.exe
Additional command line options : -V -0 -T "artist=%artist%" -T "title=%title%" -T "album=%albumtitle%" -T "date=%year%" -T "tracknumber=%tracknr%" -T "genre=%genre%" -T "COMMENT=Released by: AVLossless FÅ‘nixek Rendje" %source%

TOC of the extracted CD Track | Start | Length | Start sector | End sector
--1 | 0:00.00 | 4:17.25 | 0 | 19299 2 | 4:17.25 | 4:21.00 | 19300 | 38874 3 | 8:38.25 | 4:38.28 | 38875 | 59752 4 | 13:16.53 | 4:06.47 | 59753 | 78249 5 | 17:23.25 | 5:40.69 | 78250 | 103818 6 | 23:04.19 | 6:43.08 | 103819 | 134051 7 | 29:47.27 | 8:38.64 | 134052 | 172965 8 | 38:26.16 | 5:12.09 | 172966 | 196374 9 | 43:38.25 | 3:41.41 | 196375 | 212990
10 | 47:19.66 | 4:50.52 | 212991 | 234792
11 | 52:10.43 | 6:30.71 | 234793 | 264113
12 | 58:41.39 | 6:06.44 | 264114 | 291607

Track 1 Filename I:\David Munyon - Pretty Blue (2011)(FLAC)-AFR\01 - Jimi's Guitar.wav Pre-gap length 0:00:02.00 Peak level 94.4 %
Extraction speed 1.6 X
Track quality 100.0 %
Test CRC 0EB01AFB
Copy CRC 0EB01AFB
Accurately ripped (confidence 1) [29DC47DA] (AR v2)
Copy OK

Track 2 Filename I:\David Munyon - Pretty Blue (2011)(FLAC)-AFR\02 - Mercy In Her Eyes.wav Pre-gap length 0:00:00.44 Peak level 94.4 %
Extraction speed 1.6 X
Track quality 100.0 %
Test CRC 8BF54567
Copy CRC 8BF54567
Accurately ripped (confidence 1) [34F01888] (AR v2)
Copy OK

Track 3 Filename I:\David Munyon - Pretty Blue (2011)(FLAC)-AFR\03 - World Love.wav Peak level 94.4 %
Extraction speed 1.6 X
Track quality 100.0 %
Test CRC 4A37F903
Copy CRC 4A37F903
Accurately ripped (confidence 1) [C0622394] (AR v2)
Copy OK

Track 4 Filename I:\David Munyon - Pretty Blue (2011)(FLAC)-AFR\04 - Pretty Blue.wav Peak level 94.4 %
Extraction speed 1.5 X
Track quality 99.9 %
Test CRC DA43E622
Copy CRC DA43E622
Accurately ripped (confidence 1) D9EEF84 (AR v2)
Copy OK

Track 5 Filename I:\David Munyon - Pretty Blue (2011)(FLAC)-AFR\05 - I Want Your Love.wav Pre-gap length 0:00:00.27 Peak level 94.4 %
Extraction speed 1.5 X
Track quality 99.9 %
Test CRC 55ABE146
Copy CRC 55ABE146
Accurately ripped (confidence 1) [F3493E68] (AR v2)
Copy OK

Track 6 Filename I:\David Munyon - Pretty Blue (2011)(FLAC)-AFR\06 - On The Autobahn.wav Peak level 94.4 %
Extraction speed 1.7 X
Track quality 100.0 %
Test CRC 53C63375
Copy CRC 53C63375
Accurately ripped (confidence 1) 558F9EF (AR v2)
Copy OK

Track 7 Filename I:\David Munyon - Pretty Blue (2011)(FLAC)-AFR\07 - Hollywood Town.wav Peak level 75.9 %
Extraction speed 1.7 X
Track quality 100.0 %
Test CRC A56D9839
Copy CRC A56D9839
Accurately ripped (confidence 1) 862856C (AR v2)
Copy OK

Track 8 Filename I:\David Munyon - Pretty Blue (2011)(FLAC)-AFR\08 - Carolina Song.wav Peak level 94.4 %
Extraction speed 1.7 X
Track quality 100.0 %
Test CRC 2B9D731E
Copy CRC 2B9D731E
Accurately ripped (confidence 1) [A37D3AF4] (AR v2)
Copy OK

Track 9 Filename I:\David Munyon - Pretty Blue (2011)(FLAC)-AFR\09 - Drive To L.A..wav Peak level 94.4 %
Extraction speed 1.6 X
Track quality 100.0 %
Test CRC 1955D7CA
Copy CRC 1955D7CA
Accurately ripped (confidence 1) [D14C69D5] (AR v2)
Copy OK

Track 10 Filename I:\David Munyon - Pretty Blue (2011)(FLAC)-AFR\10 - Atlanta.wav Peak level 90.4 %
Extraction speed 1.6 X
Track quality 100.0 %
Test CRC 451765BC
Copy CRC 451765BC
Accurately ripped (confidence 1) [44461CFB] (AR v2)
Copy OK

Track 11 Filename I:\David Munyon - Pretty Blue (2011)(FLAC)-AFR\11 - Rock 'n' Roll Things.wav Peak level 94.4 %
Extraction speed 1.7 X
Track quality 100.0 %
Test CRC D3D85E9C
Copy CRC D3D85E9C
Accurately ripped (confidence 1) [4F6D4BEE] (AR v2)
Copy OK

Track 12 Filename I:\David Munyon - Pretty Blue (2011)(FLAC)-AFR\12 - Lover Hold Me Now.wav Peak level 94.2 %
Extraction speed 1.8 X
Track quality 100.0 %
Test CRC 1199B56D
Copy CRC 1199B56D
Accurately ripped (confidence 1) [566C0661] (AR v2)
Copy OK

All tracks accurately ripped

No errors occurred

End of status report

==== Log checksum 2486BC13109710D0F61FAEE3C0170CBEEABE3F5D0A5CBE117D8E4EDF7761E71E ====

foobar2000 1.1.14a / Dynamic Range Meter 1.1.1
log date: 2015-06-08 18:57:27

Analyzed: David Munyon / Pretty Blue

DR Peak RMS Duration Track

DR9 -0.50 dB -11.38 dB 4:17 01-Jimi's Guitar
DR9 -0.50 dB -11.18 dB 4:21 02-Mercy In Her Eyes
DR8 -0.50 dB -10.03 dB 4:38 03-World Love
DR9 -0.50 dB -12.07 dB 4:07 04-Pretty Blue
DR10 -0.50 dB -12.08 dB 5:41 05-I Want Your Love
DR9 -0.50 dB -11.19 dB 6:43 06-On The Autobahn
DR10 -2.39 dB -14.90 dB 8:39 07-Hollywood Town
DR10 -0.50 dB -11.95 dB 5:12 08-Carolina Song
DR9 -0.50 dB -11.71 dB 3:42 09-Drive To L.A.
DR9 -0.88 dB -11.95 dB 4:51 10-Atlanta
DR9 -0.50 dB -10.93 dB 6:31 11-Rock 'n' Roll Things
DR10 -0.51 dB -13.25 dB 6:07 12-Lover Hold Me Now

Number of tracks: 12
Official DR value: DR9

Samplerate: 44100 Hz
Channels: 2
Bits per sample: 16
Bitrate: 799 kbps
Codec: FLAC

CD Info:

David Munyon - Pretty Blue

Label: Stockfisch Records
Catalog#: SFR 357.6072.2
Format: CD, Album
Country: Germany
Released: 2011
Genre: Folk, Acoustic
Style: Singer/Songwriter

Tracklist:

01 - Jimi's Guitar (00:04:17)
02 - Mercy In Her Eyes (00:04:21)
03 - World Love (00:04:38)
04 - Pretty Blue (00:04:07)
05 - I Want Your Love (00:05:41)
06 - On The Autobahn (00:06:43)
07 - Hollywood Town (00:08:39)
08 - Carolina Song (00:05:12)
09 - Drive To L.A. (00:03:42)
10 - Atlanta (00:04:51)
11 - Rock 'n' Roll Things (00:06:31)
12 - Lover Hold Me Now (00:06:07)

"Brian Wilson quotes Munyon as being "probably one of the best songwriters ever!"

All of David Munyon's songs are preserved in his already legendary and voluminous songbook, which in the meantime contains almost 500 unique songs.

Twelve wonderful songs have been carefully chosen from this collection - bedded in a varied mixture of styles from Americana, blues and folk to rock - for the eagerly-awaited studio album "Pretty Blue". These profound and predominantly autobiographical stories tell of stations in David Munyon's eventful life. Each song is a jewel in itself, shining with a dazzling beauty born of David's love and deeply felt beliefs.

Sit back, enjoy and soak in this special listening experience with 'goose-bumps'! David Munyon sings many extremely personal, deeply touching love songs with his very intense voice - a voice which gets right under your skin, and these songs could not have been arranged and instrumented more sensitively or suitably.

An extensive and detailed booklet - with surprising photos from David's private family album and fascinating liner notes about his cryptic lyrics - rounds the whole thing off perfectly and is a fitting accompaniment to this masterpiece.

David Munyon's dream of becoming a famous movie star unfortunately didn't transpire, as we can glean from the booklet, but that is just one aspect. It is an irrefutable fact that within the American singer-songwriter tradition he is on par with such luminaries as Bob Dylan and Townes van Zandt, a fact which far too few music-lovers have discovered for themselves. Brian Wilson quotes Munyon as being "probably one of the best songwriters ever!" Enough said. ~elusivedisc"

DOWNLOAD LINKS:
Buy Premium To Support Me & Get Resumable Support & Max Speed


Links are Interchangeable - No Password - Single Extraction
Direct Download


Tags: Munyon, Pretty, Stockfisch

David Munyon - Pretty Blue (2011, Stockfisch Rec. # SFR 357.6072.2) Fast Download via Rapidshare Hotfile Fileserve Filesonic Megaupload, David Munyon - Pretty Blue (2011, Stockfisch Rec. # SFR 357.6072.2) Torrents and Emule Download or anything related.
Dear visitor, you went to website as unregistered user.
We encourage you to Register or Login to website under your name.
Information
Members of Guest cannot leave comments.