Lands End - Lower Depths (2005)

Category: Music | Comment: 0

Download Now

Lands End - Lower Depths (2005)

Lands End - Lower Depths (2005)
2CD | EAC Rip | FLAC (Img) + Cue + Log ~ 933 Mb | MP3 CBR320 ~ 370 Mb
Scans Included (JPG, 300 dpi) | RAR 5% Recovery
Progressive/Psychedelic Rock | Cyclops Records #CYCL 142D

"We could call Lands End the first "aquatic progressive" band. The fact that they live on the shores of the Pacific Ocean seems like it has quite inspired these musicians and we find many allusions to the sea in their albums. Starting from rather simple neo Progressive rock, they built their own style made of energetic guitar assisted by keyboards, over which added vocals. Their music is very progressive, somewhere in the middle between Pink Floyd, Genesis and Yes, and the musicians don't hesitate to adventure themselves into long instrumental jams..."

Discogs | All Music
***************

Lands End - Lower Depths (2005)

Track List CD1:

01. An Accident... [01:22]
02. Digital Signatures [14:23]
03. Behind the Iron Gates [07:47]
04. Why Should I? [05:12]
05. Hope Springs Eternal [08:32]
06. A New World order [24:30]
07. Believe in what [03:28]

Exact Audio Copy V1.0 beta 3 from 29. August 2011

EAC extraction logfile from 27. April 2014, 23:37

Lands End / Lower Depths CD1

Used drive : TEAC CD-W516EB Adapter: 0 ID: 0

Read mode : Secure
Utilize accurate stream : Yes
Defeat audio cache : Yes
Make use of C2 pointers : No

Read offset correction

: 685
Overread into Lead-In and Lead-Out : No
Fill up missing offset samples with silence : Yes
Delete leading and trailing silent blocks : No
Null samples used in CRC calculations : Yes
Used interface
: Native Win32 interface for Win NT & 2000

Used output format : User Defined Encoder
Selected bitrate : 1024 kBit/s
Quality : High
Add ID3 tag : Yes
Command line compressor : C:\Program Files (x86)\FLAC\flac.exe
Additional command line options : -6 -V -T "ARTIST=%artist%" -T "TITLE=%title%" -T "ALBUM=%albumtitle%" -T "DATE=%year%" -T "TRACKNUMBER=%tracknr%" -T "GENRE=%genre%" -T "COMMENT=%comment%" %source% -o %dest%

TOC of the extracted CD Track | Start | Length | Start sector | End sector
--1 | 0:00.00 | 1:21.12 | 0 | 6086 2 | 1:21.12 | 14:22.39 | 6087 | 70775 3 | 15:43.51 | 7:46.74 | 70776 | 105799 4 | 23:30.50 | 5:11.15 | 105800 | 129139 5 | 28:41.65 | 8:31.59 | 129140 | 167523 6 | 37:13.49 | 24:29.64 | 167524 | 277762 7 | 61:43.38 | 3:27.30 | 277763 | 293317

Range status and errors

Selected range Filename Y:\EAC\wurensh\Lands End\Lands End - Lower Depths CD1.wav Peak level 100.0 %
Extraction speed 7.9 X
Range quality 100.0 %
Test CRC 6DCA98EA
Copy CRC 6DCA98EA
Copy OK

No errors occurred


AccurateRip summary

Track 1 accurately ripped (confidence 1) [1E4D25E2] (AR v2)
Track 2 accurately ripped (confidence 1) [658F16B2] (AR v2)
Track 3 accurately ripped (confidence 1) [CDBA1BAA] (AR v2)
Track 4 accurately ripped (confidence 1) [0BD39202] (AR v2)
Track 5 accurately ripped (confidence 1) [59C2947D] (AR v2)
Track 6 accurately ripped (confidence 1) 5C316BF (AR v2)
Track 7 accurately ripped (confidence 1) [2E4E8E48] (AR v2)

All tracks accurately ripped

End of status report

- CUETools DB Plugin V2.1.3

[CTDB TOCID: m3awzUZnGCBmSP3LP.xKr_gAnc8-] found, Submit result: m3awzUZnGCBmSP3LP.xKr_gAnc8- has been confirmed
[8070ffb1] (2/2) Accurately ripped

foobar2000 1.2.6 / Dynamic Range Meter 1.1.1
log date: 2015-07-26 21:45:52

Analyzed: Lands End / Lower Depths CD1

DR Peak RMS Duration Track

DR9 -1.70 dB -19.21 dB 1:21 01-An Accident...
DR7 0.00 dB -11.32 dB 14:23 02-Digital Signatures
DR11 -1.70 dB -16.13 dB 7:47 03-Behind the Iron Gates
DR8 -1.70 dB -13.41 dB 5:11 04-Why Should I?
DR7 -1.70 dB -13.03 dB 8:32 05-Hope Springs Eternal
DR9 0.00 dB -11.74 dB 24:30 06-A New World order
DR10 -1.70 dB -17.15 dB 3:27 07-Believe in what

Number of tracks: 7
Official DR value: DR9

Samplerate: 44100 Hz
Channels: 2
Bits per sample: 16
Bitrate: 862 kbps
Codec: FLAC

[CUETools log; Date: 26.07.2015 21:45:44; Version: 2.1.5]
[CTDB TOCID: m3awzUZnGCBmSP3LP.xKr_gAnc8-] found.
Track | CTDB Status
1 | (3/3) Accurately ripped
2 | (3/3) Accurately ripped
3 | (3/3) Accurately ripped
4 | (3/3) Accurately ripped
5 | (3/3) Accurately ripped
6 | (3/3) Accurately ripped
7 | (3/3) Accurately ripped
[AccurateRip ID: 00100728-00648bf8-4f0f4607] found.
Track [ CRC | V2 ] Status
01 [5250dff0|1e4d25e2] (0+2/2) Accurately ripped
02 [6df0d490|658f16b2] (0+2/2) Accurately ripped
03 [5e915d86|cdba1baa] (0+2/2) Accurately ripped
04 [4718a743|0bd39202] (0+2/2) Accurately ripped
05 [67cc3461|59c2947d] (0+2/2) Accurately ripped
06 a2fef5a|b5c316bf (0+2/2) Accurately ripped
07 [a5a7e519|2e4e8e48] (0+2/2) Accurately ripped

Track Peak [ CRC32 ] [W/O NULL] [ LOG ]
-- 100,0 [6DCA98EA] [4BD04B40] CRC32
01 82,2 2487C1A [D37E7618]
02 100,0 [55D23251] 2C1C925
03 82,2 [94A316F3] [A508D8D3]
04 82,2 [F6D778A8] [241AA4DA]
05 82,2 [90DBC661] [C3B77DE7]
06 100,0 [41A80961] [CA9024FF]
07 82,2 [3B58F13C] [40410431]

Lands End - Lower Depths (2005)

Track List CD2 - Plundering The Depths:

01. Eyes of Venus [06:29]
02. Indoctrinated [05:35]
03. The philosophy of containers II [00:27]
04. This Addiction [05:11]
05. Acquiesce to the martinets precept [53:12] (the complete improv of 'Dross' from 3/96)

Exact Audio Copy V1.0 beta 3 from 29. August 2011

EAC extraction logfile from 28. April 2014, 0:55

Lands End / Lower Depths CD2

Used drive : TEAC CD-W516EB Adapter: 0 ID: 0

Read mode : Secure
Utilize accurate stream : Yes
Defeat audio cache : Yes
Make use of C2 pointers : No

Read offset correction

: 685
Overread into Lead-In and Lead-Out : No
Fill up missing offset samples with silence : Yes
Delete leading and trailing silent blocks : No
Null samples used in CRC calculations : Yes
Used interface
: Native Win32 interface for Win NT & 2000

Used output format : User Defined Encoder
Selected bitrate : 1024 kBit/s
Quality : High
Add ID3 tag : Yes
Command line compressor : C:\Program Files (x86)\FLAC\flac.exe
Additional command line options : -6 -V -T "ARTIST=%artist%" -T "TITLE=%title%" -T "ALBUM=%albumtitle%" -T "DATE=%year%" -T "TRACKNUMBER=%tracknr%" -T "GENRE=%genre%" -T "COMMENT=%comment%" %source% -o %dest%

TOC of the extracted CD Track | Start | Length | Start sector | End sector
--1 | 0:00.00 | 6:28.69 | 0 | 29168 2 | 6:28.69 | 5:34.08 | 29169 | 54226 3 | 12:03.02 | 0:26.27 | 54227 | 56203 4 | 12:29.29 | 5:10.64 | 56204 | 79517 5 | 17:40.18 | 53:12.00 | 79518 | 318917

Range status and errors

Selected range Filename Y:\EAC\wurensh\Lands End\Lands End - Lower Depths CD2.wav Peak level 100.0 %
Extraction speed 7.2 X
Range quality 99.9 %
Test CRC EABAFFFE
Copy CRC EABAFFFE
Copy OK

No errors occurred


AccurateRip summary

Track 1 accurately ripped (confidence 1) [46A33001] (AR v2)
Track 2 accurately ripped (confidence 1) [E5BA0DBC] (AR v2)
Track 3 accurately ripped (confidence 1) [E2EBE58F] (AR v2)
Track 4 accurately ripped (confidence 1) [C4725256] (AR v2)
Track 5 accurately ripped (confidence 1) [2D7A8A2A] (AR v2)

All tracks accurately ripped

End of status report

- CUETools DB Plugin V2.1.3

[CTDB TOCID: AP7xe0kQniz2pHnfWPG5e04vctU-] found, Submit result: AP7xe0kQniz2pHnfWPG5e04vctU- has been confirmed
[cccf3c54] (2/2) Accurately ripped

foobar2000 1.2.6 / Dynamic Range Meter 1.1.1
log date: 2015-07-26 21:44:11

Analyzed: Lands End / Lower Depths CD2

DR Peak RMS Duration Track

DR9 -0.78 dB -13.02 dB 6:29 01-Eyes of Venus
DR10 -0.72 dB -13.65 dB 5:34 02-Indoctrinated
DR10 0.00 dB -11.91 dB 0:26 03-The philosophy of containers II
DR11 -0.67 dB -14.21 dB 5:11 04-This Addiction
DR9 0.00 dB -13.78 dB 53:12 05-Acquiesce to the martinets precept

Number of tracks: 5
Official DR value: DR10

Samplerate: 44100 Hz
Channels: 2
Bits per sample: 16
Bitrate: 877 kbps
Codec: FLAC

[CUETools log; Date: 26.07.2015 21:44:15; Version: 2.1.5]
[CTDB TOCID: AP7xe0kQniz2pHnfWPG5e04vctU-] found.
Track | CTDB Status
1 | (3/3) Accurately ripped
2 | (3/3) Accurately ripped
3 | (3/3) Accurately ripped
4 | (3/3) Accurately ripped
5 | (3/3) Accurately ripped
[AccurateRip ID: 000835b4-002a1146-32109c05] found.
Track [ CRC | V2 ] Status
01 [5f034324|46a33001] (0+2/2) Accurately ripped
02 [0970d11c|e5ba0dbc] (0+2/2) Accurately ripped
03 [a57a90d9|e2ebe58f] (0+2/2) Accurately ripped
04 [6d17fc18|c4725256] (0+2/2) Accurately ripped
05 [e951eac5|2d7a8a2a] (0+2/2) Accurately ripped

Track Peak [ CRC32 ] [W/O NULL] [ LOG ]
-- 100,0 [EABAFFFE] [58FE932C] CRC32
01 91,4 [1C3EE03A] [7438097D]
02 92,0 [31ACB39C] [85AF1E1C]
03 100,0 2F303F3 [A44E6183]
04 92,5 [E1F79968] [1AC7B8EB]
05 100,0 [CA30BF04] [E7A7ECA1]

Line-up:

Mark Lavallee - drums & percussion
Fred Hunter - keyboards, bass, Taurus pedals, guitars

Guest musicians:

Jeff McFarland - vocals & guitars
Steve Anderson (SPHERES 3) - guitars
Francisco Neto - guitars
Cathy Alexander (The MORRIGAN) - vocals
Bruce Soord (PINEAPLE THIEF) - guitars
Steve Ades - saxophone

Lands End - Lower Depths (2005)

All thanks go to hyperborea70 and wurensh


DOWNLOAD LINKS:
Buy Premium To Support Me & Get Resumable Support & Max Speed


Links are Interchangeable - No Password - Single Extraction
Direct Download


Tags: Depths

Lands End - Lower Depths (2005) Fast Download via Rapidshare Hotfile Fileserve Filesonic Megaupload, Lands End - Lower Depths (2005) Torrents and Emule Download or anything related.
Dear visitor, you went to website as unregistered user.
We encourage you to Register or Login to website under your name.
Information
Members of Guest cannot leave comments.