Opa - Goldenwings + Magic Time (1997) 2 LP in 1 CD

Category: Music | Comment: 0

Download Now

Opa - Goldenwings + Magic Time (1997) 2 LP in 1 CD

Opa - Goldenwings + Magic Time (1997) 2 LP in 1 CD
EAC | FLAC | Tracks (Cue&Log) ~ 490 Mb (incl 5%) | Mp3 (CBR320) ~ 188 Mb (incl 5%) | Scans included
Genre: Latin Jazz, Fusion, Jazz Rock, Candombe | Label: Milestone | # MCD-47074-2 | Time: 01:14:19

"In 1997, it came as a quite a surprise when Fantasy reissued Opa's albums Golden Wings (1976) and Magic Time (1977) on a single 74-minute CD -- surprising because the fusion trio had only a very small following; its albums were far from big sellers, and the original LP versions were in print for only a few years. If one notices some similarity between the melodic blend of jazz, rock, funk, pop, and Brazilian music heard on this disc and Airto Moreira's CTI dates of the 1970s, it's no coincidence -- Moreira produced both Golden Wings and Magic Time and plays percussion on both of them. Opa members Hugh Fattoruso (keyboards, vocals), George Fattoruso (drums, vocals, percussion), and Ringo Thielmann (bass, vocals) often worked with the percussionist and his wife, Flora Purim, in the 1970s, and his influence clearly rubbed off. It's regrettable that Opa were never as commercially successful as either Moreira or Purim, although this CD points to the fact that it wasn't due to a lack of rewarding material."



Tracklist:

01. Goldenwings (04:15)
02. Paper Butterflies (Muy Lejos Te Vas) (07:09)
03. Totem (04:39)
04. African bird (05:40)
05. Corre Nina (05:42)
06. Pieces (05:15)
07. Groove (06:23)
08. Mind Projects (05:56)
09. Camino (07:26)
10. La Cumbia De Andres (04:41)
11. Montevideo (08:37)
12. Malisimo (08:28)


Exact Audio Copy V0.99 prebeta 5 from 4. May 2009

EAC extraction logfile from 14. December 2009, 19:29

Opa / Goldenwings_Magic Time

Used drive : TEAC CD-W224E Adapter: 1 ID: 0

Read mode : Secure
Utilize accurate stream : Yes
Defeat audio cache : Yes
Make use of C2 pointers : No

Read offset correction

: 685
Overread into Lead-In and Lead-Out : No
Fill up missing offset samples with silence : Yes
Delete leading and trailing silent blocks : No
Null samples used in CRC calculations : Yes
Used interface
: Native Win32 interface for Win NT & 2000
Gap handling
: Appended to previous track

Used output format : User Defined Encoder
Selected bitrate : 128 kBit/s
Quality : High
Add ID3 tag : No
Command line compressor : C:\Program Files\FLAC\flac.exe
Additional command line options : -8 -V -T "ARTIST=%a" -T "TITLE=%t" -T "ALBUM=%g" -T "DATE=%y" -T "TRACKNUMBER=%n" -T "GENRE=%m" -T "COMMENT=EAC FLAC -8" %s

TOC of the extracted CD Track | Start | Length | Start sector | End sector
--1 | 0:00.00 | 4:15.37 | 0 | 19161 2 | 4:15.37 | 7:09.60 | 19162 | 51396 3 | 11:25.22 | 4:39.43 | 51397 | 72364 4 | 16:04.65 | 5:41.47 | 72365 | 97986 5 | 21:46.37 | 5:42.23 | 97987 | 123659 6 | 27:28.60 | 5:15.07 | 123660 | 147291 7 | 32:43.67 | 6:24.45 | 147292 | 176136 8 | 39:08.37 | 5:56.65 | 176137 | 202901 9 | 45:05.27 | 7:26.58 | 202902 | 236409
10 | 52:32.10 | 4:41.50 | 236410 | 257534
11 | 57:13.60 | 8:37.25 | 257535 | 296334
12 | 65:51.10 | 8:28.10 | 296335 | 334444

Track 1 Filename C:\konwersja\Opa - Goldenwings_Magic Time (1976) [FLAC]\01 - Goldenwings.wav Pre-gap length 0:00:02.00 Peak level 100.0 %
Track quality 100.0 %
Test CRC 00BF507F
Copy CRC 00BF507F
Accurately ripped (confidence 1) [D5DFEF36]
Copy OK

Track 2 Filename C:\konwersja\Opa - Goldenwings_Magic Time (1976) [FLAC]\02 - Paper Butterflies.wav Peak level 93.1 %
Track quality 100.0 %
Test CRC 425DCAC3
Copy CRC 425DCAC3
Accurately ripped (confidence 1) [E497573C]
Copy OK

Track 3 Filename C:\konwersja\Opa - Goldenwings_Magic Time (1976) [FLAC]\03 - Totem.wav Peak level 86.9 %
Track quality 99.9 %
Test CRC D02C6B19
Copy CRC D02C6B19
Accurately ripped (confidence 1) [1F297F94]
Copy OK

Track 4 Filename C:\konwersja\Opa - Goldenwings_Magic Time (1976) [FLAC]\04 - African bird.wav Peak level 94.0 %
Track quality 100.0 %
Test CRC BFA5BD1D
Copy CRC BFA5BD1D
Accurately ripped (confidence 1) [C2A1F359]
Copy OK

Track 5 Filename C:\konwersja\Opa - Goldenwings_Magic Time (1976) [FLAC]\05 - Corre Ninia.wav Pre-gap length 0:00:01.09 Peak level 96.5 %
Track quality 100.0 %
Test CRC D53C2EB8
Copy CRC D53C2EB8
Accurately ripped (confidence 1) [3E8BDFCC]
Copy OK

Track 6 Filename C:\konwersja\Opa - Goldenwings_Magic Time (1976) [FLAC]\06 - Pieces.wav Peak level 100.0 %
Track quality 99.9 %
Test CRC 59173030
Copy CRC 59173030
Accurately ripped (confidence 1) [29FDADED]
Copy OK

Track 7 Filename C:\konwersja\Opa - Goldenwings_Magic Time (1976) [FLAC]\07 - Groove.wav Peak level 91.7 %
Track quality 100.0 %
Test CRC EC5D7400
Copy CRC EC5D7400
Accurately ripped (confidence 1) [035FFB3E]
Copy OK

Track 8 Filename C:\konwersja\Opa - Goldenwings_Magic Time (1976) [FLAC]\08 - Mind Projects.wav Pre-gap length 0:00:01.36 Peak level 100.0 %
Track quality 100.0 %
Test CRC 099281DF
Copy CRC 099281DF
Accurately ripped (confidence 1) [A88E56B9]
Copy OK

Track 9 Filename C:\konwersja\Opa - Goldenwings_Magic Time (1976) [FLAC]\09 - Camino.wav Peak level 100.0 %
Track quality 100.0 %
Test CRC A6F1A70C
Copy CRC A6F1A70C
Accurately ripped (confidence 1) [DA179F7B]
Copy OK

Track 10 Filename C:\konwersja\Opa - Goldenwings_Magic Time (1976) [FLAC]\10 - La Cumbia de Andres.wav Peak level 88.9 %
Track quality 100.0 %
Test CRC 31685EB5
Copy CRC 31685EB5
Accurately ripped (confidence 1) [76B6E711]
Copy OK

Track 11 Filename C:\konwersja\Opa - Goldenwings_Magic Time (1976) [FLAC]\11 - Montevideo.wav Peak level 100.0 %
Track quality 99.9 %
Test CRC 35F07326
Copy CRC 35F07326
Accurately ripped (confidence 1) [F06A613E]
Copy OK

Track 12 Filename C:\konwersja\Opa - Goldenwings_Magic Time (1976) [FLAC]\12 - Malisimo.wav Peak level 100.0 %
Track quality 100.0 %
Test CRC F23444B5
Copy CRC F23444B5
Accurately ripped (confidence 1) [C52F5852]
Copy OK

All tracks accurately ripped

No errors occurred

End of status report

foobar2000 1.2 / Dynamic Range Meter 1.1.1
log date: 2015-07-25 01:45:09

Analyzed: Opa / Goldenwings / Magic Time

DR Peak RMS Duration Track

DR15 0.00 dB -16.89 dB 4:15 01-Goldenwings
DR15 -0.62 dB -19.16 dB 7:10 02-Paper Butterflies (Muy Lejos Te Vas)
DR13 -1.21 dB -17.58 dB 4:40 03-Totem
DR15 -0.53 dB -17.95 dB 5:42 04-African Bird
DR14 -0.31 dB -17.19 dB 5:42 05-Corre Niña
DR15 0.00 dB -18.93 dB 5:15 06-Pieces: (a) Tombo, (b) La Escuela, (c) Tombo, (d) The Last Goodbye
DR14 -0.75 dB -16.86 dB 6:25 07-Groove
DR13 0.00 dB -17.62 dB 5:57 08-Mind Projects
DR15 0.00 dB -20.25 dB 7:27 09-Camino: (a) Arise, (b) Long Walk, (c) Romantica, (d) Land
DR13 -1.02 dB -17.04 dB 4:42 10-La Cumbia De Andrés
DR13 0.00 dB -15.25 dB 8:37 11-Montevideo
DR14 0.00 dB -17.45 dB 8:28 12-Malísimo

Number of tracks: 12
Official DR value: DR14

Samplerate: 44100 Hz
Channels: 2
Bits per sample: 16
Bitrate: 823 kbps
Codec: FLAC

Opa - Goldenwings + Magic Time (1997) 2 LP in 1 CD

Opa - Goldenwings + Magic Time (1997) 2 LP in 1 CD

All thanks to original releaser - dotdash
Password: designol

DOWNLOAD LINKS:
Buy Premium To Support Me & Get Resumable Support & Max Speed


Links are Interchangeable - No Password - Single Extraction
Direct Download


Tags: Goldenwings

Opa - Goldenwings + Magic Time (1997) 2 LP in 1 CD Fast Download via Rapidshare Hotfile Fileserve Filesonic Megaupload, Opa - Goldenwings + Magic Time (1997) 2 LP in 1 CD Torrents and Emule Download or anything related.
Dear visitor, you went to website as unregistered user.
We encourage you to Register or Login to website under your name.
Information
Members of Guest cannot leave comments.