Jimmy McGriff - The Worm (1968) {2014 Japan Rare Groove Funk Best Collection 1000}

Category: Music | Comment: 0

Download Now


Jimmy McGriff - The Worm (1968) {2014 Japan Rare Groove Funk Best Collection 1000}
Jimmy McGriff - The Worm (1968) {2014 Japan Rare Groove Funk Best Collection 1000}
EAC rip (secure mode) | FLAC (tracks)+CUE+LOG -> 243 Mb | MP3 @320 -> 90 Mb
Full Artwork @ 600 dpi (png) -> 152 Mb | 5% repair rar
© 2014 Capitol / Solid State / Universal Music Japan | UCCU-90069
Jazz / Jazz Funk / Soul Jazz / Organ

"Jimmy McGriff's B-3 sound was always rooted in blues and gospel, and his soloing could be very smooth and polished. But every once in a while, he had to break out of his own soul box and tear it up on a session. The Worm, issued on Solid State Records in 1968, is the very first place he did. This is the first true, all-out funky burner from McGriff, and it sounds very different from most of the other titles on his shelf. Having a band like this helps: trumpeter Blue Mitchell, tenor saxophonist Fats Theus (with Bob Ashton on baritone and Danny Turner on alto), alternating drummers Mel Lewis and Grady Tate, bassist Bob Bushnell, and guitarist Thornel Schwartz were all in their prime in 1968. The title track, written by McGriff, Theus, and producer Sonny Lester, sets the tone for the whole platter."

Jimmy McGriff - The Worm (1968) {2014 Japan Rare Groove Funk Best Collection 1000}


Personnel:
Jimmy McGriff - organ
Blue Mitchell - trumpet
Danny Turner - alto saxophone
Fats Theus - tenor saxophone
Bob Ashton - baritone saxophone
Thornel Schwartz - guitar
Bob Bushnell - electric bass
Mel Lewis - drums
Grady Tate - drums

tracklist:
01 - The Worm
02 - Keep Loose
03 - Heavyweight
04 - Think
05 - Lock It Up
06 - Girl Talk
07 - Blue Juice
08 - Take The ''A'' Train

Exact Audio Copy V1.1 from 23. June 2015

EAC extraction logfile from 28. July 2015, 7:04

Jimmy McGriff / The Worm

Used drive : TSSTcorpCDDVDW SE-208DB Adapter: 7 ID: 0

Read mode : Secure
Utilize accurate stream : Yes
Defeat audio cache : Yes
Make use of C2 pointers : No

Read offset correction

: 6
Overread into Lead-In and Lead-Out : No
Fill up missing offset samples with silence : Yes
Delete leading and trailing silent blocks : No
Null samples used in CRC calculations : Yes
Used interface
: Installed external ASPI interface
Gap handling
: Appended to previous track

Used output format : User Defined Encoder
Selected bitrate : 1024 kBit/s
Quality : High
Add ID3 tag : No
Command line compressor : C:\Program Files (x86)\FLAC Frontend\tools\flac.exe
Additional command line options : -8 -V -T "ARTIST=%artist%" -T "TITLE=%title%" -T "ALBUM=%albumtitle%" -T "DATE=%year%" -T "TRACKNUMBER=%tracknr%" -T "TOTALTRACKS=%numtracks%" -T "GENRE=%genre%" -T "ALBUMARTIST=%albumartist%" -T "ALBUM ARTIST=%albumartist%" -T "COMMENT=EAC Secure Mode, Test & Copy, AccurateRip, FLAC -8" %source%

TOC of the extracted CD Track | Start | Length | Start sector | End sector
--1 | 0:00.00 | 3:21.04 | 0 | 15078 2 | 3:21.04 | 5:55.03 | 15079 | 41706 3 | 9:16.07 | 6:50.49 | 41707 | 72505 4 | 16:06.56 | 3:16.34 | 72506 | 87239 5 | 19:23.15 | 5:12.43 | 87240 | 110682 6 | 24:35.58 | 4:30.47 | 110683 | 130979 7 | 29:06.30 | 4:57.55 | 130980 | 153309 8 | 34:04.10 | 3:41.40 | 153310 | 169924

Track 1 Filename M:\_EAC\Jimmy McGriff - The Worm (1968) [FLAC] {2014 Japan Rare Groove Funk Best Collection 1000}\01 - The Worm.wav Pre-gap length 0:00:02.00 Peak level 100.0 %
Extraction speed 0.9 X
Track quality 100.0 %
Test CRC 87F09E51
Copy CRC 87F09E51
Accurately ripped (confidence 3) [38188CE1] (AR v2)
Copy OK

Track 2 Filename M:\_EAC\Jimmy McGriff - The Worm (1968) [FLAC] {2014 Japan Rare Groove Funk Best Collection 1000}\02 - Keep Loose.wav Pre-gap length 0:00:02.28 Peak level 98.2 %
Extraction speed 1.1 X
Track quality 100.0 %
Test CRC F65A3FA2
Copy CRC F65A3FA2
Accurately ripped (confidence 3) [E9FEBD48] (AR v2)
Copy OK

Track 3 Filename M:\_EAC\Jimmy McGriff - The Worm (1968) [FLAC] {2014 Japan Rare Groove Funk Best Collection 1000}\03 - Heavyweight.wav Pre-gap length 0:00:02.28 Peak level 100.0 %
Extraction speed 1.2 X
Track quality 99.9 %
Test CRC C81B5EFD
Copy CRC C81B5EFD
Accurately ripped (confidence 3) [3CA0F4B0] (AR v2)
Copy OK

Track 4 Filename M:\_EAC\Jimmy McGriff - The Worm (1968) [FLAC] {2014 Japan Rare Groove Funk Best Collection 1000}\04 - Think.wav Pre-gap length 0:00:02.28 Peak level 97.4 %
Extraction speed 1.3 X
Track quality 100.0 %
Test CRC 847E9534
Copy CRC 847E9534
Accurately ripped (confidence 3) [7F7B8C01] (AR v2)
Copy OK

Track 5 Filename M:\_EAC\Jimmy McGriff - The Worm (1968) [FLAC] {2014 Japan Rare Groove Funk Best Collection 1000}\05 - Lock It Up.wav Pre-gap length 0:00:02.28 Peak level 98.9 %
Extraction speed 1.4 X
Track quality 100.0 %
Test CRC DC3DA199
Copy CRC DC3DA199
Accurately ripped (confidence 3) [18BE87B5] (AR v2)
Copy OK

Track 6 Filename M:\_EAC\Jimmy McGriff - The Worm (1968) [FLAC] {2014 Japan Rare Groove Funk Best Collection 1000}\06 - Girl Talk.wav Pre-gap length 0:00:02.28 Peak level 100.0 %
Extraction speed 1.5 X
Track quality 100.0 %
Test CRC 912B9C35
Copy CRC 912B9C35
Accurately ripped (confidence 3) [0CD5A234] (AR v2)
Copy OK

Track 7 Filename M:\_EAC\Jimmy McGriff - The Worm (1968) [FLAC] {2014 Japan Rare Groove Funk Best Collection 1000}\07 - Blue Juice.wav Pre-gap length 0:00:02.28 Peak level 100.0 %
Extraction speed 1.6 X
Track quality 100.0 %
Test CRC 66831A5F
Copy CRC 66831A5F
Accurately ripped (confidence 3) [74CB0AB6] (AR v2)
Copy OK

Track 8 Filename M:\_EAC\Jimmy McGriff - The Worm (1968) [FLAC] {2014 Japan Rare Groove Funk Best Collection 1000}\08 - Take The ''A'' Train.wav Pre-gap length 0:00:02.28 Peak level 100.0 %
Extraction speed 1.6 X
Track quality 100.0 %
Test CRC 5ACBC597
Copy CRC 5ACBC597
Accurately ripped (confidence 3) [6B4D7B28] (AR v2)
Copy OK

All tracks accurately ripped

No errors occurred

End of status report

==== Log checksum CAC0441BC0281B893005789C7A6DC2E5133E97716C0D253C920B1C403618C8CD ====

Jimmy McGriff - The Worm (1968) {2014 Japan Rare Groove Funk Best Collection 1000}

Jimmy McGriff - The Worm (1968) {2014 Japan Rare Groove Funk Best Collection 1000}

DOWNLOAD LINKS:
Buy Premium To Support Me & Get Resumable Support & Max Speed


Links are Interchangeable - No Password - Single Extraction
Direct Download


Tags: McGriff, Groove, Collection

Jimmy McGriff - The Worm (1968) {2014 Japan Rare Groove Funk Best Collection 1000} Fast Download via Rapidshare Hotfile Fileserve Filesonic Megaupload, Jimmy McGriff - The Worm (1968) {2014 Japan Rare Groove Funk Best Collection 1000} Torrents and Emule Download or anything related.
Dear visitor, you went to website as unregistered user.
We encourage you to Register or Login to website under your name.
Information
Members of Guest cannot leave comments.