Marcel Dupré - Ben van Oosten - Organ Works Vol. 10 (2008, MDG "Gold" # 316 1292-2) [RE-UP]

Category: Music | Comment: 0

Download Now


Marcel Dupré - Ben van Oosten - Organ Works Vol. 10 (2008, MDG "Gold" # 316 1292-2) [RE-UP]
Marcel Dupré - Ben van Oosten - Organ Works Vol. 10
Organ of Birmingham Town Hall
EAC+LOG+CUE | FLAC: 239 MB | Full Artwork: 116 MB | 5% Recovery Info
Label/Cat#: MDG "Gold" # 316 1292-2 | Country/Year: Germany 2008
Genre: Classical | Style: Style: 20th Century, Organ

""...In many ways Dupré may be viewed as a 'Paganini' of the organ - being a virtuoso of the highest order, he contributed extensively to the development of technique (both in his organ music and in his pedagogical works) although, like Paganini, his music is relatively unknown to musicians other than those who play the instrument for which the music was written. A fair and objective critique of his music should take into account the fact that, occasionally, the emphasis on virtuosity and technique can be detrimental to the musical content and substance. However, his more successful works combine this virtuosity with a high degree of musical integrity, qualities found in works such as the Symphonie-Passion, the Chemin de la Croix, the Preludes and Fugues, the Esquisses and Évocation, and the Cortège et Litanie..." ~wikipedia"



Marcel Dupré - Ben van Oosten - Organ Works Vol. 10 (2008, MDG "Gold" # 316 1292-2) [RE-UP]



Exact Audio Copy V1.0 beta 3 from 29. August 2011

EAC extraction logfile from 5. June 2013, 22:07

Ben van Oosten / Dupré: Organ Works Vol. 10

Used drive : PIONEER BD-RW BDR-206 Adapter: 0 ID: 2

Read mode : Secure
Utilize accurate stream : Yes
Defeat audio cache : Yes
Make use of C2 pointers : No

Read offset correction

: 667
Overread into Lead-In and Lead-Out : No
Fill up missing offset samples with silence : Yes
Delete leading and trailing silent blocks : No
Null samples used in CRC calculations : Yes
Used interface
: Native Win32 interface for Win NT & 2000

Used output format : User Defined Encoder
Selected bitrate : 1024 kBit/s
Quality : High
Add ID3 tag : Yes
Command line compressor : C:\Program Files\FLAC\flac.exe
Additional command line options : -5 -T "Artist=%artist%" -T "Title=%title%" -T "Album=%albumtitle%" -T "Date=%year%" -T "Tracknumber=%tracknr%" -T "Genre=%genre%" %source% -o %dest%

TOC of the extracted CD Track | Start | Length | Start sector | End sector
--1 | 0:00.00 | 6:58.09 | 0 | 31358 2 | 6:58.09 | 8:19.29 | 31359 | 68812 3 | 15:17.38 | 0:45.23 | 68813 | 72210 4 | 16:02.61 | 1:14.54 | 72211 | 77814 5 | 17:17.40 | 0:39.71 | 77815 | 80810 6 | 17:57.36 | 0:41.31 | 80811 | 83916 7 | 18:38.67 | 1:13.51 | 83917 | 89442 8 | 19:52.43 | 0:48.30 | 89443 | 93072 9 | 20:40.73 | 1:48.12 | 93073 | 101184
10 | 22:29.10 | 8:16.65 | 101185 | 138449
11 | 30:46.00 | 1:15.35 | 138450 | 144109
12 | 32:01.35 | 1:04.09 | 144110 | 148918
13 | 33:05.44 | 1:09.57 | 148919 | 154150
14 | 34:15.26 | 0:44.04 | 154151 | 157454
15 | 34:59.30 | 1:10.10 | 157455 | 162714
16 | 36:09.40 | 0:38.52 | 162715 | 165616
17 | 36:48.17 | 0:54.28 | 165617 | 169694
18 | 37:42.45 | 5:04.50 | 169695 | 192544
19 | 42:47.20 | 3:35.55 | 192545 | 208724
20 | 46:23.00 | 3:59.38 | 208725 | 226687
21 | 50:22.38 | 5:25.35 | 226688 | 251097
22 | 55:47.73 | 3:30.18 | 251098 | 266865
23 | 59:18.16 | 3:08.19 | 266866 | 280984

Range status and errors

Selected range Filename F:\=== VINYL RIPS ===\=== EAC===\X FRESH RIP\Ben van Oosten - Dupré- Organ Works Vol. 10.wav Peak level 98.9 %
Extraction speed 7.8 X
Range quality 100.0 %
Copy CRC A10411E6
Copy OK

No errors occurred


AccurateRip summary

Track 1 accurately ripped (confidence 1) [136E72C7] (AR v1)
Track 2 accurately ripped (confidence 1) [17DD5436] (AR v1)
Track 3 accurately ripped (confidence 1) [8697AAA4] (AR v1)
Track 4 accurately ripped (confidence 1) [EE52E945] (AR v1)
Track 5 accurately ripped (confidence 1) [98143111] (AR v1)
Track 6 accurately ripped (confidence 1) [6F9A9D33] (AR v1)
Track 7 accurately ripped (confidence 1) [40155CB3] (AR v1)
Track 8 accurately ripped (confidence 1) [E26738F4] (AR v1)
Track 9 accurately ripped (confidence 1) [895AED43] (AR v1)
Track 10 accurately ripped (confidence 1) [26F6FACB] (AR v1)
Track 11 accurately ripped (confidence 1) [AE9D5255] (AR v1)
Track 12 accurately ripped (confidence 1) [760F3E02] (AR v1)
Track 13 accurately ripped (confidence 1) [397A71B8] (AR v1)
Track 14 accurately ripped (confidence 1) [593602B9] (AR v1)
Track 15 accurately ripped (confidence 1) [C70F5033] (AR v1)
Track 16 accurately ripped (confidence 1) [1DF90556] (AR v1)
Track 17 accurately ripped (confidence 1) [A1282F0F] (AR v1)
Track 18 accurately ripped (confidence 1) [70FCBCFA] (AR v1)
Track 19 accurately ripped (confidence 1) [C4685B0B] (AR v1)
Track 20 accurately ripped (confidence 1) [AEC0984B] (AR v1)
Track 21 accurately ripped (confidence 1) A1EA4C4 (AR v1)
Track 22 accurately ripped (confidence 1) [DB030B95] (AR v1)
Track 23 accurately ripped (confidence 1) [A7404FB2] (AR v1)

All tracks accurately ripped

End of status report

- CUETools DB Plugin V2.1.3

[CTDB TOCID: L6B6TRjvwoFKhIzvG5T3IEL86FE-] disk not present in database, Submit result: L6B6TRjvwoFKhIzvG5T3IEL86FE- has been uploaded

==== Log checksum 09BEBCF4EDABAB24397505E4E933E86562A8772C55CBA8D1CA235513AE88B9D9 ====

foobar2000 1.1.14a / Dynamic Range Meter 1.1.1
log date: 2013-06-06 12:17:43

Analyzed: Ben van Oosten / Dupré: Organ Works Vol. 10

DR Peak RMS Duration Track

DR13 -0.09 dB -18.28 dB 6:58 01-Cortege et litanie, organ Op. 19 No. 2
DR13 -4.38 dB -22.99 dB 8:19 02-Miserere Mei, organ Op. 46
DR9 -17.34 dB -30.33 dB 0:45 03-Chorales (79), organ No. 1 - Ah, Stay By Us, Lord Jesus Christ Op. 28
DR9 -11.87 dB -25.05 dB 1:15 04-Chorales (79), organ No. 71 - Before Thy Throne I will appear Op. 28
DR9 -12.39 dB -24.46 dB 0:40 05-Chorales (79), organ No. 26 - Salvation has been brought unto us Op. 28
DR9 -7.17 dB -19.69 dB 0:41 06-Chorales (79), organ No. 48 - Descend, O Jesus, from heaven to earth Op. 28
DR9 -25.42 dB -37.06 dB 1:14 07-Chorales (79), organ No. 9 - O Christ who art the light of the world Op. 28
DR9 -15.41 dB -28.55 dB 0:48 08-Chorales (79), organ No. 46 - Come God, Creator, Holy Ghost Op. 28
DR9 -11.73 dB -24.77 dB 1:48 09-Chorales (79), organ No. 47 - Come Holy Ghost, Lord God Op. 28
DR12 -1.42 dB -21.63 dB 8:17 10-Lamento, organ Op. 24
DR9 -13.53 dB -24.58 dB 1:15 11-Chorales (79), organ No. 6 - By The Waters Of Babylon Op. 28
DR8 -17.98 dB -28.77 dB 1:04 12-Chorales (79), organ No. 23 - Have mercy upon me, O Lord, my God Op. 28
DR8 -10.06 dB -24.23 dB 1:10 13-Chorales (79), organ No. 39 - In Thee, Lord, have I hoped Op. 28
DR8 -19.32 dB -31.11 dB 0:44 14-Chorales (79), organ No. 10 - Christ the lamb of God Op. 28
DR9 -14.55 dB -26.61 dB 1:10 15-Chorales (79), organ No. 64 - Deck thyself, O beloved soul Op. 28
DR9 -15.40 dB -27.60 dB 0:39 16-Chorales (79), organ No. 32 - Lord Jesus Christ, turn onto us Op. 28
DR10 -18.82 dB -31.62 dB 0:54 17-Chorales (79), organ No. 79 - Whither shall I flee Op. 28
DR10 -18.81 dB -31.96 dB 5:05 18-Prelude and fugue, organ, no. 01, e minor Prelude Op. 36 No. 1
DR10 -16.34 dB -29.79 dB 3:36 19-Prelude and fugue, organ, no. 01, e minor Fugue Op. 36 No. 1
DR12 -3.50 dB -19.70 dB 4:00 20-Prelude and fugue, organ, no. 02, A-Flat Major Prelude Op. 36 No. 2
DR13 -0.75 dB -20.16 dB 5:25 21-Prelude and fugue, organ, no. 02, A-Flat Major Fugue Op. 36 No. 2
DR9 -18.08 dB -30.17 dB 3:30 22-Prelude and fugue, organ, no. 03, C Major Prelude Op. 36 No. 3
DR14 -0.27 dB -19.91 dB 3:08 23-Prelude and fugue, organ, no. 03, C Major Fugue Op. 36 No. 3

Number of tracks: 23
Official DR value: DR10

Samplerate: 44100 Hz
Channels: 2
Bits per sample: 16
Bitrate: 511 kbps
Codec: FLAC

CD Info:

Ben van Oosten - Dupré: Organ Works Vol. 10

Organ of Birmingham Town Hall

Label: MDG
Series: Gold
Catalog#: 316 1292-2
Format: CD, Album
Country: Germany
Released: 2008
Genre: Classical
Style: 20th Century, Organ

Tracklist:

1 Cortege et litanie, organ Op. 19 No. 2 6:58
2 Miserere Mei, organ Op. 46 8:19
3 Chorales (79), organ No. 1 - Ah, Stay By Us, Lord Jesus Christ Op. 28 0:45
4 Chorales (79), organ No. 71 - Before Thy Throne I will appear Op. 28 1:15
5 Chorales (79), organ No. 26 - Salvation has been brought unto us Op. 28 0:40
6 Chorales (79), organ No. 48 - Descend, O Jesus, from heaven to earth Op. 28 0:41
7 Chorales (79), organ No. 9 - O Christ who art the light of the world Op. 28 1:14
8 Chorales (79), organ No. 46 - Come God, Creator, Holy Ghost Op. 28 0:48
9 Chorales (79), organ No. 47 - Come Holy Ghost, Lord God Op. 28 1:48
10 Lamento, organ Op. 24 8:17
11 Chorales (79), organ No. 6 - By The Waters Of Babylon Op. 28 1:15
12 Chorales (79), organ No. 23 - Have mercy upon me, O Lord, my God Op. 28 1:04
13 Chorales (79), organ No. 39 - In Thee, Lord, have I hoped Op. 28 1:10
14 Chorales (79), organ No. 10 - Christ the lamb of God Op. 28 0:44
15 Chorales (79), organ No. 64 - Deck thyself, O beloved soul Op. 28 1:10
16 Chorales (79), organ No. 32 - Lord Jesus Christ, turn onto us Op. 28 0:39
17 Chorales (79), organ No. 79 - Whither shall I flee Op. 28 0:54
18 Prelude and fugue, organ, no. 01, e minor Prelude Op. 36 No. 1 5:05
19 Prelude and fugue, organ, no. 01, e minor Fugue Op. 36 No. 1 3:36
20 Prelude and fugue, organ, no. 02, A-Flat Major Prelude Op. 36 No. 2 4:00
21 Prelude and fugue, organ, no. 02, A-Flat Major Fugue Op. 36 No. 2 5:25
22 Prelude and fugue, organ, no. 03, C Major Prelude Op. 36 No. 3 3:30
23 Prelude and fugue, organ, no. 03, C Major Fugue Op. 36 No. 3 3:08

"Marcel Dupré (3 May 1886 - 30 May 1971) was a French organist, pianist, composer, and pedagogue.

Marcel Dupré was born in Rouen (Normandy, France). Born into a musical family, he was a child prodigy. His father Albert Dupré was organist in Rouen and a friend of Aristide Cavaillé-Coll, who built an organ in the family house when Marcel was 14 years old. He entered the Paris Conservatoire in 1904, where he studied with Louis Diémer and Lazare Lévy (piano), Alexandre Guilmant and Louis Vierne (organ), and Charles-Marie Widor (fugue and composition). In 1914, Dupré won the Grand Prix de Rome for his cantata, Psyché. In 1926, he was appointed professor of organ performance and improvisation at the Paris Conservatoire, a position he held until 1954.

Dupré became famous for performing more than 2000 organ recitals throughout Australia, the United States, Canada and Europe, which included a recital series of 10 concerts of the complete works of Johann Sebastian Bach in 1920 (Paris Conservatoire) and 1921 (Palais du Trocadéro), both performed entirely from memory. The sponsorship of an American transcontinental tour by the John Wanamaker department store interests rocketed his name into international prominence. Dupré's "Symphonie-Passion" began as an improvisation on Philadelphia's Wanamaker Organ. In 1924, he was elected as an honorary member of Phi Mu Alpha Sinfonia Fraternity, by the Fraternity's Alpha Chapter at the New England Conservatory in Boston.

In 1934, Dupré succeeded Charles-Marie Widor as titular organist at St. Sulpice in Paris, a post he held until his death in 1971.

From 1947 to 1954, he was director of the American Conservatory, which occupies the Louis XV wing of the Château de Fontainebleau near Paris. In 1954, Dupré succeeded Claude Delvincourt as director of the Paris Conservatoire, where he remained until 1956. He died in 1971 in Meudon (near Paris) at the age of 85.

As a composer, he produced a wide-ranging oeuvre of 65 opus numbers, and also taught two generations of well-known organists such as Jehan Alain and Marie-Claire Alain, Jean-Marie Beaudet, Pierre Cochereau, Jeanne Demessieux, Rolande Falcinelli, Jean-Jacques Grunenwald, Jean Guillou, Jean Langlais, Carl Weinrich and Olivier Messiaen, to name only a few. Aside from a few fine works for aspiring organists (such as the 79 Chorales op. 28) most of Dupré's music for the organ ranges from moderately to extremely difficult, and some of it makes almost impossible technical demands on the performer (e.g., Évocation op. 37, Suite, op. 39, Deux Esquisses op. 41, Vision op. 44).

His most often heard and recorded compositions tend to be from the earlier years of his career. During this time he wrote the Three Preludes and Fugues, Op. 7 (1914), with the First and Third Preludes (in particular the G minor with its phenomenally fast tempo/figurations and pedal chords) being pronounced unplayable by no less a figure than Widor. Indeed, such is their difficulty that Dupré was the only organist able to play them until several years later.

In many ways Dupré may be viewed as a 'Paganini' of the organ - being a virtuoso of the highest order, he contributed extensively to the development of technique (both in his organ music and in his pedagogical works) although, like Paganini, his music is relatively unknown to musicians other than those who play the instrument for which the music was written. A fair and objective critique of his music should take into account the fact that, occasionally, the emphasis on virtuosity and technique can be detrimental to the musical content and substance. However, his more successful works combine this virtuosity with a high degree of musical integrity, qualities found in works such as the Symphonie-Passion, the Chemin de la Croix, the Preludes and Fugues, the Esquisses and Évocation, and the Cortège et Litanie.

As well as composing prolifically, Dupré prepared study editions of the organ works of Bach, Handel, Mozart, Liszt, Mendelssohn, Schumann, César Franck, and Alexander Glazunov. He also wrote a method for organ (1927), 2 treatises on organ improvisation (1926 and 1937), and books on harmonic analysis (1936), counterpoint (1938), fugue (1938), and accompaniment of Gregorian chant (1937), in addition to essays on organ building, acoustics, and philosophy of music. As an improviser, Dupré excelled as perhaps no other did during the 20th century, and he was able to take given themes and spontaneously weave whole symphonies around them, often with elaborate contrapuntal devices including fugues. The achievement of these feats was partially due to his unsurpassed genius and partially due to his hard work doing paper exercises when he was not busy practising or composing.

Although his emphasis as composer was the organ, Dupré's catalog of musical compositions also includes works for piano, orchestra and choir, as well as chamber music, and a number of transcriptions. Some works initially published by HW Gray and now out of print have begun to be reissued by Crescendo Music Publications. wikipedia"


Composer:

Johann Sebastian Bach

Woldemar Bargiel

Ludwig van Beethoven

Marcel Dupre

Johann Nepomuk Hummel

Robert Schumann

Performer:

BeethovenQuartet

Musica Alta Ripa

Trio Parnassus


Marcel Dupré - Ben van Oosten - Organ Works Vol. 10 (2008, MDG "Gold" # 316 1292-2) [RE-UP]


DOWNLOAD LINKS:
Buy Premium To Support Me & Get Resumable Support & Max Speed


Links are Interchangeable - No Password - Single Extraction
Direct Download


Tags: Marcel, Oosten

Marcel Dupré - Ben van Oosten - Organ Works Vol. 10 (2008, MDG "Gold" # 316 1292-2) [RE-UP] Fast Download via Rapidshare Hotfile Fileserve Filesonic Megaupload, Marcel Dupré - Ben van Oosten - Organ Works Vol. 10 (2008, MDG "Gold" # 316 1292-2) [RE-UP] Torrents and Emule Download or anything related.
Dear visitor, you went to website as unregistered user.
We encourage you to Register or Login to website under your name.
Information
Members of Guest cannot leave comments.