Magali Mosnier - Mozart - Flotenkonzerte (2015) {Sony Music Classical}

Category: Music | Comment: 0

Download Now


Magali Mosnier - Mozart - Flotenkonzerte (2015) {Sony Music Classical}
Magali Mosnier - Mozart - Flotenkonzerte (2015) {Sony Music Classical}
EAC rip (secure mode) | FLAC (tracks)+CUE+LOG -> 300 Mb | MP3 @320 -> 155 Mb
Full Artwork @ 300 dpi (png) -> 103 Mb | 5% repair rar
© 2015 Sony Music Classical | 88843089752
Classical / Concerto / Flute

"Un disque incontournable là aussi avec les splendides Concertos pour Flute de Mozart, par la soliste de l'Orchestre Philharmonique de Radio France, Magali Mosnier. Elle est ici accompagnée d'un des meilleurs orchestres de chambre d'Europe, L'Orchestre de chambre de Munich. En complément de programme le magnifique Andante pour flute et orchestre et 2 transcriptions d'airs les plus virtuoses, de Scipion ou extrait de la Flute enchantée, un air de « La reine de la nuit »."

Magali Mosnier - Mozart - Flotenkonzerte (2015) {Sony Music Classical}


Personnel:
Flûte Magali Mosnier
Interprète Orchestre De Chambre De Munich

tracklist:
01 - Flute Concerto No. 1 in G Major, K. 313 - I. Allegro maestoso
02 - Flute Concerto No. 1 in G Major, K. 313 - II. Adagio ma non troppo
03 - Flute Concerto No. 1 in G Major, K. 313 - III. Rondo. Tempo Di Menuetto
04 - Flute Quartet No. 1 in D Major, K. 285 - II. Adagio
05 - Flute Concerto No. 2 in D Major, K. 314 - I. Allegro aperto
06 - Flute Concerto No. 2 in D Major, K. 314 - II. Adagio ma non troppo
07 - Flute Concerto No. 2 in D Major, K. 314 - III. Rondeau. Allegro
08 - Andante for Flute and Orchestra in C Major, K. 315 (K. 285e)
09 - Il sogno di Scipione, K. 126 - Lieve sono al par del vento (Arr. for Flute and Orchstra)
10 - Die Zauberflote - Ach, ich fuhl's (Arr. for Flute and Orchstra)

Exact Audio Copy V1.0 beta 6 from 9. April 2015

EAC extraction logfile from 18. July 2015, 9:30

Magali Mosnier / Mozart - Flotenkonzerte

Used drive : ATAPI iHBS112 2 Adapter: 1 ID: 0

Read mode : Secure
Utilize accurate stream : Yes
Defeat audio cache : Yes
Make use of C2 pointers : No

Read offset correction

: 6
Overread into Lead-In and Lead-Out : No
Fill up missing offset samples with silence : Yes
Delete leading and trailing silent blocks : No
Null samples used in CRC calculations : Yes
Used interface
: Native Win32 interface for Win NT & 2000
Gap handling
: Appended to previous track

Used output format : User Defined Encoder
Selected bitrate : 1024 kBit/s
Quality : High
Add ID3 tag : No
Command line compressor : C:\Program Files\Exact Audio Copy\Flac\flac.exe
Additional command line options : -8 -V -T "ARTIST=%artist%" -T "TITLE=%title%" -T "ALBUM=%albumtitle%" -T "DATE=%year%" -T "TRACKNUMBER=%tracknr%" -T "TOTALTRACKS=%numtracks%" -T "GENRE=%genre%" -T "ALBUMARTIST=%albumartist%" -T "ALBUM ARTIST=%albumartist%" -T "COMPOSER=%composer%" -T "PERFORMER=%albuminterpret%" -T "DISCNUMBER=%cdnumber%" -T "TOTALDISCS=%totalcds%" -T "COMMENT=EAC Secure Mode, Test & Copy, AccurateRip, FLAC -8" %source%

TOC of the extracted CD Track | Start | Length | Start sector | End sector
--1 | 0:00.00 | 9:52.07 | 0 | 44406 2 | 9:52.07 | 8:53.30 | 44407 | 84411 3 | 18:45.37 | 7:29.04 | 84412 | 118090 4 | 26:14.41 | 2:43.19 | 118091 | 130334 5 | 28:57.60 | 7:34.63 | 130335 | 164447 6 | 36:32.48 | 6:27.18 | 164448 | 193490 7 | 42:59.66 | 5:50.61 | 193491 | 219801 8 | 48:50.52 | 5:32.26 | 219802 | 244727 9 | 54:23.03 | 6:46.51 | 244728 | 275228
10 | 61:09.54 | 3:40.34 | 275229 | 291762

Track 1 Filename P:\DL\Magali Mosnier - Mozart - Flotenkonzerte (2015) [FLAC]\01 - Flute Concerto No. 1 in G Major, K. 313 - I. Allegro maestoso.wav Pre-gap length 0:00:02.00 Peak level 99.0 %
Extraction speed 6.1 X
Track quality 100.0 %
Test CRC 378F6F29
Copy CRC 378F6F29
Track not present in AccurateRip database
Copy OK

Track 2 Filename P:\DL\Magali Mosnier - Mozart - Flotenkonzerte (2015) [FLAC]\02 - Flute Concerto No. 1 in G Major, K. 313 - II. Adagio ma non troppo.wav Peak level 51.7 %
Extraction speed 7.1 X
Track quality 100.0 %
Test CRC 6D957D8C
Copy CRC 6D957D8C
Track not present in AccurateRip database
Copy OK

Track 3 Filename P:\DL\Magali Mosnier - Mozart - Flotenkonzerte (2015) [FLAC]\03 - Flute Concerto No. 1 in G Major, K. 313 - III. Rondo. Tempo Di Menuetto.wav Peak level 85.5 %
Extraction speed 7.9 X
Track quality 100.0 %
Test CRC F141DBE6
Copy CRC F141DBE6
Track not present in AccurateRip database
Copy OK

Track 4 Filename P:\DL\Magali Mosnier - Mozart - Flotenkonzerte (2015) [FLAC]\04 - Flute Quartet No. 1 in D Major, K. 285 - II. Adagio.wav Peak level 29.0 %
Extraction speed 7.5 X
Track quality 100.0 %
Test CRC 63DD0478
Copy CRC 63DD0478
Track not present in AccurateRip database
Copy OK

Track 5 Filename P:\DL\Magali Mosnier - Mozart - Flotenkonzerte (2015) [FLAC]\05 - Flute Concerto No. 2 in D Major, K. 314 - I. Allegro aperto.wav Peak level 91.6 %
Extraction speed 7.9 X
Track quality 99.9 %
Test CRC 15647FD3
Copy CRC 15647FD3
Track not present in AccurateRip database
Copy OK

Track 6 Filename P:\DL\Magali Mosnier - Mozart - Flotenkonzerte (2015) [FLAC]\06 - Flute Concerto No. 2 in D Major, K. 314 - II. Adagio ma non troppo.wav Peak level 89.8 %
Extraction speed 8.9 X
Track quality 100.0 %
Test CRC AD3348F2
Copy CRC AD3348F2
Track not present in AccurateRip database
Copy OK

Track 7 Filename P:\DL\Magali Mosnier - Mozart - Flotenkonzerte (2015) [FLAC]\07 - Flute Concerto No. 2 in D Major, K. 314 - III. Rondeau. Allegro.wav Peak level 94.4 %
Extraction speed 9.6 X
Track quality 100.0 %
Test CRC 874784E4
Copy CRC 874784E4
Track not present in AccurateRip database
Copy OK

Track 8 Filename P:\DL\Magali Mosnier - Mozart - Flotenkonzerte (2015) [FLAC]\08 - Andante for Flute and Orchestra in C Major, K. 315 (K. 285e).wav Peak level 59.9 %
Extraction speed 8.6 X
Track quality 99.9 %
Test CRC F6D9FACB
Copy CRC F6D9FACB
Track not present in AccurateRip database
Copy OK

Track 9 Filename P:\DL\Magali Mosnier - Mozart - Flotenkonzerte (2015) [FLAC]\09 - Il sogno di Scipione, K. 126 - Lieve sono al par del vento (Arr. for Flute and Orchstra).wav Peak level 97.5 %
Extraction speed 9.2 X
Track quality 99.9 %
Test CRC FDE4395E
Copy CRC FDE4395E
Track not present in AccurateRip database
Copy OK

Track 10 Filename P:\DL\Magali Mosnier - Mozart - Flotenkonzerte (2015) [FLAC]\10 - Die Zauberflote - Ach, ich fuhl's (Arr. for Flute and Orchstra).wav Peak level 49.8 %
Extraction speed 6.1 X
Track quality 99.8 %
Test CRC 2B386700
Copy CRC 2B386700
Track not present in AccurateRip database
Copy OK

None of the tracks are present in the AccurateRip database

No errors occurred

End of status report

- CUETools DB Plugin V2.1.6

[CTDB TOCID: C_ypCifNRFbHJsrBP2d57vPgZvo-] found
Submit result:
Track | CTDB Status
1 | (1/1) Accurately ripped
2 | (1/1) Accurately ripped
3 | (1/1) Accurately ripped
4 | (1/1) Accurately ripped
5 | (1/1) Accurately ripped
6 | (1/1) Accurately ripped
7 | (1/1) Accurately ripped
8 | (1/1) Accurately ripped
9 | (1/1) Accurately ripped
10 | (1/1) Accurately ripped

==== Log checksum 371E96A482034278A669E1AF3126C7841190565F1AF3039F3AEB5E1D15DEC6FB ====

Magali Mosnier - Mozart - Flotenkonzerte (2015) {Sony Music Classical}

Magali Mosnier - Mozart - Flotenkonzerte (2015) {Sony Music Classical}


thanks to dtromp...
DOWNLOAD LINKS:
Buy Premium To Support Me & Get Resumable Support & Max Speed


Links are Interchangeable - No Password - Single Extraction
Direct Download


Tags: Magali, Mosnier, Mozart, Flotenkonzerte, Classical

Magali Mosnier - Mozart - Flotenkonzerte (2015) {Sony Music Classical} Fast Download via Rapidshare Hotfile Fileserve Filesonic Megaupload, Magali Mosnier - Mozart - Flotenkonzerte (2015) {Sony Music Classical} Torrents and Emule Download or anything related.
Dear visitor, you went to website as unregistered user.
We encourage you to Register or Login to website under your name.
Information
Members of Guest cannot leave comments.