Charlie Mingus - Statement (1969) {2014 Japan Studio Songs Remaster YZSO Series}

Category: Music | Comment: 0

Download Now


Charlie Mingus - Statement (1969) {2014 Japan Studio Songs Remaster YZSO Series}
Charlie Mingus - Statement (1969) {2014 Japan Studio Songs Remaster YZSO Series}
EAC rip (secure mode) | FLAC (tracks)+CUE+LOG -> 124 Mb | MP3 @320 -> 95 Mb
Full Artwork @ 600 dpi (png) -> 144 Mb | 5% repair rar
© 2014 Studio Songs Japan | YZSO-10046 | Mono
Jazz / Post Bop / Bass

"Bassist Charles Mingus was largely inactive in music during 1966-69. This CD finds Mingus leading a new sextet comprised of veteran alumni (altoist Charles McPherson, pianist Jaki Byard and drummer Dannie Richmond) and two newcomers (trumpeter Eddie Preston and Bobby Jones on tenor). The music, two new songs ("The Man Who Never Sleeps" and "O.P.") and a remake of "Orange Was the Color of Her Dress," is enjoyable although not particularly innovative; it does have some exciting moments."

Personnel:
Charlie Mingus - bass
Eddie Preston - trumpet
Charles McPherson - alto sax
Bobby Jones - tenor sax
Jaki Byard - piano
Dannie Richmond - drums

tracklist:
01 - Orange Was The Colour Of Her Dress
02 - The Man Who Never Sleeps
03 - O.P.

Exact Audio Copy V1.1 from 23. June 2015

EAC extraction logfile from 27. July 2015, 22:59

Charles Mingus / Statements

Used drive : TSSTcorpCDDVDW SE-208DB Adapter: 7 ID: 0

Read mode : Secure
Utilize accurate stream : Yes
Defeat audio cache : Yes
Make use of C2 pointers : No

Read offset correction

: 6
Overread into Lead-In and Lead-Out : No
Fill up missing offset samples with silence : Yes
Delete leading and trailing silent blocks : No
Null samples used in CRC calculations : Yes
Used interface
: Installed external ASPI interface
Gap handling
: Appended to previous track

Used output format : User Defined Encoder
Selected bitrate : 1024 kBit/s
Quality : High
Add ID3 tag : No
Command line compressor : C:\Program Files (x86)\FLAC Frontend\tools\flac.exe
Additional command line options : -8 -V -T "ARTIST=%artist%" -T "TITLE=%title%" -T "ALBUM=%albumtitle%" -T "DATE=%year%" -T "TRACKNUMBER=%tracknr%" -T "TOTALTRACKS=%numtracks%" -T "GENRE=%genre%" -T "ALBUMARTIST=%albumartist%" -T "ALBUM ARTIST=%albumartist%" -T "COMMENT=EAC Secure Mode, Test & Copy, AccurateRip, FLAC -8" %source%

TOC of the extracted CD Track | Start | Length | Start sector | End sector
--1 | 0:00.37 | 18:06.72 | 37 | 81558 2 | 18:07.34 | 16:30.10 | 81559 | 155818 3 | 34:37.44 | 8:50.30 | 155819 | 195598

Track 1 Filename M:\_EAC\Charlie Mingus - Statement (1969) [FLAC] {2014 Japan Studio Songs Remaster YZSO Series}\01 - Orange Was The Colour Of Her Dress.wav Pre-gap length 0:00:02.37 Peak level 96.0 %
Extraction speed 1.4 X
Track quality 99.9 %
Test CRC 2B07FB92
Copy CRC 2B07FB92
Accurately ripped (confidence 1) [8FBED848] (AR v2)
Copy OK

Track 2 Filename M:\_EAC\Charlie Mingus - Statement (1969) [FLAC] {2014 Japan Studio Songs Remaster YZSO Series}\02 - The Man Who Never Sleeps.wav Pre-gap length 0:00:01.61 Peak level 100.0 %
Extraction speed 1.9 X
Track quality 100.0 %
Test CRC FA24CD9B
Copy CRC FA24CD9B
Accurately ripped (confidence 1) 3AEB676 (AR v2)
Copy OK

Track 3 Filename M:\_EAC\Charlie Mingus - Statement (1969) [FLAC] {2014 Japan Studio Songs Remaster YZSO Series}\03 - O.P..wav Pre-gap length 0:00:01.56 Peak level 87.3 %
Extraction speed 2.1 X
Track quality 100.0 %
Test CRC BAFBD617
Copy CRC BAFBD617
Accurately ripped (confidence 1) [2F33BC25] (AR v2)
Copy OK

All tracks accurately ripped

No errors occurred

End of status report

==== Log checksum 1AAD33058CEBE03F34010A2A94E8C162FDD71C85B5D1B0196D1C4C8F5655CB8F ====

Charlie Mingus - Statement (1969) {2014 Japan Studio Songs Remaster YZSO Series}

Charlie Mingus - Statement (1969) {2014 Japan Studio Songs Remaster YZSO Series}

DOWNLOAD LINKS:
Buy Premium To Support Me & Get Resumable Support & Max Speed


Links are Interchangeable - No Password - Single Extraction
Direct Download


Tags: Charlie, Mingus, Statement, Studio, Remaster, Series

Charlie Mingus - Statement (1969) {2014 Japan Studio Songs Remaster YZSO Series} Fast Download via Rapidshare Hotfile Fileserve Filesonic Megaupload, Charlie Mingus - Statement (1969) {2014 Japan Studio Songs Remaster YZSO Series} Torrents and Emule Download or anything related.
Dear visitor, you went to website as unregistered user.
We encourage you to Register or Login to website under your name.
Information
Members of Guest cannot leave comments.