The Rolling Stones - Let It Bleed (1969) [1986, Polydor P33L 25002, Japan]

Category: Music | Comment: 0

Download Now

The Rolling Stones - Let It Bleed (1969) [1986, Polydor P33L 25002, Japan]

The Rolling Stones - Let It Bleed (1969)
EAC | Flac(Image) + Cue + Log & MP3 CBR 320Kbps
Polydor, P33L 25002 | ~ 258 or 104 Mb | Scans(jpg) -> 77 Mb
Blues Rock / Rock & Roll

"Mostly recorded without Brian Jones -- who died several months before its release (although he does play on two tracks) and was replaced by Mick Taylor (who also plays on just two songs) -- this extends the rock and blues feel of Beggars Banquet into slightly harder-rocking, more demonically sexual territory..."


Tracklist:

1. Gimme Shelter (4:33)
2. Love In Vain (4:21)
3. Country Honk (3:08)
4. Live With Me (3:34)
5. Let It Bleed (5:29)
6. Midnight Rambler (6:56)
7. You Got The Silver (2:53)
8. Monkey Man (4:13)
9. You Can't Always Get What You Want (7:33)

Musicians:

Mick Jagger - lead and backing vocals, harmonica on "Gimme Shelter" and "Midnight Rambler"
Keith Richards - acoustic, electric and slide guitar, bass guitar on "Live with Me", backing vocals, lead vocals on "You Got the Silver"
Brian Jones - autoharp on "You Got the Silver", percussion on "Midnight Rambler"
Mick Taylor - electric guitar on "Live with Me", slide guitar on "Country Honk"
Charlie Watts - drums (except "You Can't Always Get What You Want")
Bill Wyman - bass guitar (except "Country Honk" and "Live with Me"), autoharp on "Let It Bleed", vibes on "Monkey Man"

Additional musicians:
Ian Stewart - piano on "Let It Bleed"
Nicky Hopkins - piano on "Gimme Shelter", "Live with Me", "You Got the Silver", and "Monkey Man", organ on "You Got the Silver"
Byron Berline - fiddle on "Country Honk"
Merry Clayton - vocals, backing vocals on "Gimme Shelter" (credited as "Mary Clayton" on the LP and 2002 CD remaster)
Ry Cooder - mandolin on "Love in Vain"
Bobby Keys - tenor saxophone on "Live with Me"
Jimmy Miller - percussion on "Gimme Shelter", drums on "You Can't Always Get What You Want", tambourine on "Monkey Man"
Leon Russell - piano and horn arrangement on "Live with Me"
Jack Nitzsche - choral arrangements on "You Can't Always Get What You Want"
Al Kooper - piano, French horn and organ on "You Can't Always Get What You Want"
Nanette Workman - backing vocals on "Country Honk" and "You Can't Always Get What You Want" (not actress Nanette Newman as credited on the LP)
Doris Troy - backing vocals on "You Can't Always Get What You Want"
Madeline Bell - backing vocals on "You Can't Always Get What You Want"
Rocky Dijon - percussion on "You Can't Always Get What You Want"
The London Bach Choir - vocals on "You Can't Always Get What You Want"


Exact Audio Copy V1.0 beta 4 from 7. December 2014

EAC extraction logfile from 6. April 2015, 20:17

The Rolling Stones / Let It Bleed (1986, P33L 25002)

Used drive : ATAPI iHAS124 B Adapter: 1 ID: 0

Read mode : Secure
Utilize accurate stream : Yes
Defeat audio cache : Yes
Make use of C2 pointers : No

Read offset correction

: 6
Overread into Lead-In and Lead-Out : No
Fill up missing offset samples with silence : Yes
Delete leading and trailing silent blocks : No
Null samples used in CRC calculations : Yes
Used interface
: Installed external ASPI interface

Used output format : User Defined Encoder
Selected bitrate : 128 kBit/s
Quality : High
Add ID3 tag : Yes
Command line compressor : C:\Program Files (x86)\Exact Audio Copy\Flac\flac.exe
Additional command line options : -V -8 -T "Date=%year%" -T "Genre=%genre%" %source%

TOC of the extracted CD Track | Start | Length | Start sector | End sector
--1 | 0:00.37 | 4:35.38 | 37 | 20699 2 | 4:36.00 | 4:24.47 | 20700 | 40546 3 | 9:00.47 | 3:11.20 | 40547 | 54891 4 | 12:11.67 | 3:35.45 | 54892 | 71061 5 | 15:47.37 | 5:32.20 | 71062 | 95981 6 | 21:19.57 | 6:59.55 | 95982 | 127461 7 | 28:19.37 | 2:56.65 | 127462 | 140726 8 | 31:16.27 | 4:16.15 | 140727 | 159941 9 | 35:32.42 | 7:32.33 | 159942 | 193874

Range status and errors

Selected range Filename G:\CD\The Rolling Stones - Let It Bleed.wav Peak level 98.9 %
Extraction speed 8.3 X
Range quality 100.0 %
Test CRC EA436ECC
Copy CRC EA436ECC
Copy OK

No errors occurred


AccurateRip summary

Track 1 cannot be verified as accurate (confidence 4) [9AE2B091], AccurateRip returned [6F5528A9] (AR v2)
Track 2 cannot be verified as accurate (confidence 4) [54E8EDA9], AccurateRip returned [9E12F03B] (AR v2)
Track 3 cannot be verified as accurate (confidence 4) [C954CBE8], AccurateRip returned [11946792] (AR v2)
Track 4 cannot be verified as accurate (confidence 4) [0F0D5B6F], AccurateRip returned [F240698F] (AR v2)
Track 5 cannot be verified as accurate (confidence 4) [9F1C4A0C], AccurateRip returned [6F381651] (AR v2)
Track 6 cannot be verified as accurate (confidence 4) [F98CC215], AccurateRip returned [15AD64AD] (AR v2)
Track 7 cannot be verified as accurate (confidence 4) [355EE0B8], AccurateRip returned [44A178C3] (AR v2)
Track 8 cannot be verified as accurate (confidence 4) [A5D452DF], AccurateRip returned [506216B9] (AR v2)
Track 9 cannot be verified as accurate (confidence 4) [6D08997C], AccurateRip returned [840FC493] (AR v2)

No tracks could be verified as accurate
You may have a different pressing from the one(s) in the database

End of status report

- CUETools DB Plugin V2.1.4

[CTDB TOCID: 2I16c6c_rQXHhas3lY6fOmVNQlk-] found
Submit result: already submitted
Track | CTDB Status
1 | (3/3) Accurately ripped
2 | (3/3) Accurately ripped
3 | (3/3) Accurately ripped
4 | (1/3) Accurately ripped, or (2/3) differs in 1470 samples @01:22:47-01:22:49
5 | (3/3) Accurately ripped
6 | (3/3) Accurately ripped
7 | (3/3) Accurately ripped
8 | (3/3) Accurately ripped
9 | (3/3) Accurately ripped
If you are sure that your rip contains errors, you can use CUETools to repair it.

==== Log checksum 60D2B72D63911A10905D4E7B60536E7A8F8FD14D944110ED2A19AC2FB99ECBD2 ====

foobar2000 1.2.9 / Dynamic Range Meter 1.1.1
log date: 2015-08-06 15:47:45

Analyzed: The Rolling Stones / Let It Bleed (1986, P33L 25002)

DR Peak RMS Duration Track

DR10 -1.01 dB -13.61 dB 4:36 01-Gimme Shelter
DR11 -1.76 dB -16.30 dB 4:25 02-Love In Vain
DR12 -0.52 dB -16.42 dB 3:11 03-Country Honk
DR12 -0.80 dB -15.34 dB 3:36 04-Live With Me
DR10 -2.12 dB -14.96 dB 5:32 05-Let It Bleed
DR11 -0.94 dB -15.47 dB 7:00 06-Midnight Rambler
DR12 -1.98 dB -18.08 dB 2:57 07-You Got The Silver
DR11 -0.45 dB -14.28 dB 4:16 08-Monkey Man
DR10 -0.10 dB -15.03 dB 7:32 09-You Can't Always Get What You Want

Number of tracks: 9
Official DR value: DR11

Samplerate: 44100 Hz
Channels: 2
Bits per sample: 16
Bitrate: 813 kbps
Codec: FLAC

[CUETools log; Date: 23.06.2015 18:03:04; Version: 2.1.5]
Pregap length 00:00:37.
[CTDB TOCID: 2I16c6c_rQXHhas3lY6fOmVNQlk-] found.
Track | CTDB Status
1 | (5/5) Accurately ripped
2 | (5/5) Accurately ripped
3 | (5/5) Accurately ripped
4 | (3/5) Accurately ripped, or (2/5) differs in 1470 samples @01:22:47-01:22:49
5 | (5/5) Accurately ripped
6 | (5/5) Accurately ripped
7 | (5/5) Accurately ripped
8 | (5/5) Accurately ripped
9 | (5/5) Accurately ripped
[AccurateRip ID: 000dd00a-0066636e-780a1909] found.
Track [ CRC | V2 ] Status
01 [df0e1a6d|9ae2b091] (00+02/10) Accurately ripped
02 [dd86c214|54e8eda9] (00+02/10) Accurately ripped
03 [caffeffb|c954cbe8] (00+02/10) Accurately ripped
04 [75a40548|0f0d5b6f] (00+02/08) Accurately ripped
05 [77f4098e|9f1c4a0c] (00+02/10) Accurately ripped
06 67c769d|f98cc215 (00+02/10) Accurately ripped
07 [6c55624d|355ee0b8] (00+02/10) Accurately ripped
08 [02c1d885|a5d452df] (00+02/10) Accurately ripped
09 [8f052732|6d08997c] (00+02/10) Accurately ripped
Offsetted by -233:
01 [0c1bb00b] (00/10) No match (V2 was not tested)
02 [8f756d74] (00/10) No match (V2 was not tested)
03 98a68b9 (00/10) No match (V2 was not tested)
04 [70e041d1] (00/08) No match (V2 was not tested)
05 [100096c5] (00/10) No match (V2 was not tested)
06 [5b2582d6] (00/10) No match (V2 was not tested)
07 [d7fa7ae0] (00/10) No match (V2 was not tested)
08 [4607ba37] (00/10) No match (V2 was not tested)
09 [47b7d8c6] (00/10) No match (V2 was not tested)
Offsetted by 81:
01 667d05f (02/10) Accurately ripped
02 [2c934850] (02/10) Accurately ripped
03 [0a049178] (02/10) Accurately ripped
04 [599e1b7a] (00/08) No match (V2 was not tested)
05 [41e775ec] (02/10) Accurately ripped
06 [d0d2564e] (02/10) Accurately ripped
07 [7b5ec0db] (02/10) Accurately ripped
08 [a2265b51] (02/10) Accurately ripped
09 [95be6e17] (02/10) Accurately ripped

Track Peak [ CRC32 ] [W/O NULL] [ LOG ]
-- 98,9 [EA436ECC] [662E09A6] CRC32
01 88,9 [23156F34] [87AF26FB]
02 81,6 [E23A8CC1] [30FAE3E6]
03 94,1 [28CC7997] [E639BA0E]
04 91,1 5396304 [7E34A1F7]
05 78,3 [A44C7A5F] [47777726]
06 89,7 [F9A4E0C3] [991C1016]
07 79,6 [571376F7] [6DA01410]
08 94,9 [113576E6] [43E8C371]
09 98,9 [4FEC91D6] [6BFA03C5]

The Rolling Stones - Let It Bleed (1969) [1986, Polydor P33L 25002, Japan]

DOWNLOAD LINKS:
Buy Premium To Support Me & Get Resumable Support & Max Speed


Links are Interchangeable - No Password - Single Extraction
Direct Download


Tags: Rolling, Stones, Polydor

The Rolling Stones - Let It Bleed (1969) [1986, Polydor P33L 25002, Japan] Fast Download via Rapidshare Hotfile Fileserve Filesonic Megaupload, The Rolling Stones - Let It Bleed (1969) [1986, Polydor P33L 25002, Japan] Torrents and Emule Download or anything related.
Dear visitor, you went to website as unregistered user.
We encourage you to Register or Login to website under your name.
Information
Members of Guest cannot leave comments.