Iannis Xenakis - Alpha & Omega (2011) [4CD Set] {Universal Music France}

Category: Music | Comment: 0

Download Now


Iannis Xenakis - Alpha & Omega (2011) [4CD Set] {Universal Music France}
Iannis Xenakis - Alpha & Omega (2011) [4CD Set] {Universal Music France}
EAC rip (secure mode) | FLAC (tracks)+CUE+LOG -> 1.36 Gb | MP3 @320 -> 693 Mb
Full Artwork @ 300 dpi (png) -> 146 Mb | 5% repair rar
© 2011 Universal Music France / Accord / Decca | ACCORD 4804904
Classical / Avant-Garde / Modern Classical / Experimental

"Universal Music pays tribute to the composer with this keenly priced 4 CD set. Most of the recordings found here are making a comeback to the catalogue, some are first time onto CD. Ten years after his death, the innovativeness of his music has lost none of its force and clearly marks him out as an essential composer of our time. "this is an extraordinary collection of pieces; several of which are among the most ear-stretchingly dissonant, exciting and uncompromising you'll ever hear...And however hard it is to pin down exactly why, Xenakis's wildest outbursts always sound controlled, cunningly organised...None of this music is easy listening, but it's impossible not to be impressed by such craggy, exhilarating physicality.""

Iannis Xenakis - Alpha & Omega (2011) [4CD Set] {Universal Music France}

"Iannis Xenakis a été l'un des compositeurs du siècle dernier les plus inventifs quant à la technique instrumentale et vocale. Dix ans après sa disparition, sa musique a gardé toute sa force novatrice et surprend toujours autant. Universal Music Classics rend hommage au compositeur à travers un coffret de 4 albums, réunissant quelques-uns de ses 140 numéros d'opus et permettant de prendre la mesure de l'éclatante originalité de son ouvre. Partant de son « opus primum » Metastasis, l'auditeur est invité à découvrir successivement les univers sonores dans lesquels Xenakis nous entraîne à sa suite, pour arriver à son ultime O-Mega. Un certain nombre des enregistrements présentés ici ont été réalisés par les créateurs des ouvres et ont donc la valeur d'un témoignage particulier, celui de pionniers qui ont défriché des partitions qui renouvelaient radicalement l'idiomatisme de leur instrument."


Iannis Xenakis - Alpha & Omega (2011) [4CD Set] {Universal Music France}


tracklist:
CD1

01 - Metastasis (1953-54)
02 - Diamorphoses (1957)
03 - Concret PH (1958)
04 - Analogique A Et B (1958-1959)
05 - Orient-Occident (1960)
06 - Morsima-Amorsima (1962)
07 - Nomos Alpha (1966)
08 - Anaktoria (1969)

CD2
01 - Nuits (1967)
02 - Persephassa (1969)
03 - Synaphai (1969)
04 - Aroura (1971)

Iannis Xenakis - Alpha & Omega (2011) [4CD Set] {Universal Music France}


CD3
01 - Antikhthon (1971)
02 - Persepolis (1971)

CD4
01 - Charisma (1971)
02 - Mikka, Mikka ''S'' (1971, 1976)
03 - Mists (1981)
04 - Keren (1986)
05 - Keqrops (1986)
06 - Oophaa (1989)
07 - O-Mega (1997)

Iannis Xenakis - Alpha & Omega (2011) [4CD Set] {Universal Music France}



Exact Audio Copy V1.0 beta 3 from 29. August 2011

EAC extraction logfile from 10. February 2012, 18:56

Iannis Xenakis / ALPHA & OMEGA CD1

Used drive : PLEXTOR DVDR PX-860A Adapter: 0 ID: 0

Read mode : Secure
Utilize accurate stream : Yes
Defeat audio cache : Yes
Make use of C2 pointers : No

Read offset correction

: 96
Overread into Lead-In and Lead-Out : No
Fill up missing offset samples with silence : Yes
Delete leading and trailing silent blocks : No
Null samples used in CRC calculations : Yes
Used interface
: Native Win32 interface for Win NT & 2000
Gap handling
: Appended to previous track

Used output format : User Defined Encoder
Selected bitrate : 1024 kBit/s
Quality : High
Add ID3 tag : No
Command line compressor : C:\Program Files\Exact Audio Copy 3\Flac\flac.exe
Additional command line options : -8 -V -T "ARTIST=%artist%" -T "TITLE=%title%" -T "ALBUM=%albumtitle%" -T "DATE=%year%" -T "TRACKNUMBER=%tracknr%" -T "GENRE=%genre%" -T "PERFORMER=%albuminterpret%" -T "COMPOSER=%composer%" %haslyrics%--tag-from-file=LYRICS="%lyricsfile%"%haslyrics% -T "ALBUMARTIST=%albumartist%" -T "DISCNUMBER=%cdnumber%" -T "TOTALDISCS=%totalcds%" -T "TOTALTRACKS=%numtracks%" -T "COMMENT=%comment%" %source% -o %dest%

TOC of the extracted CD Track | Start | Length | Start sector | End sector
--1 | 0:00.00 | 8:30.05 | 0 | 38254 2 | 8:30.05 | 7:01.40 | 38255 | 69869 3 | 15:31.45 | 2:41.42 | 69870 | 81986 4 | 18:13.12 | 7:28.22 | 81987 | 115608 5 | 25:41.34 | 10:54.08 | 115609 | 164666 6 | 36:35.42 | 10:51.42 | 164667 | 213533 7 | 47:27.09 | 14:39.19 | 213534 | 279477 8 | 62:06.28 | 13:07.31 | 279478 | 338533

Track 1 Filename I:\DL\Iannis Xenakis - ALPHA & OMEGA CD1 (2011) [FLAC]\01 - Metastasis (1953-54).wav Pre-gap length 0:00:02.00 Peak level 100.0 %
Extraction speed 5.3 X
Track quality 100.0 %
Test CRC B467625A
Copy CRC B467625A
Track not present in AccurateRip database
Copy OK

Track 2 Filename I:\DL\Iannis Xenakis - ALPHA & OMEGA CD1 (2011) [FLAC]\02 - Diamorphoses (1957).wav Pre-gap length 0:00:05.09 Peak level 99.9 %
Extraction speed 6.0 X
Track quality 100.0 %
Test CRC 643374E5
Copy CRC 643374E5
Track not present in AccurateRip database
Copy OK

Track 3 Filename I:\DL\Iannis Xenakis - ALPHA & OMEGA CD1 (2011) [FLAC]\03 - Concret PH (1958).wav Pre-gap length 0:00:03.44 Peak level 52.0 %
Extraction speed 5.7 X
Track quality 100.0 %
Test CRC 87857467
Copy CRC 87857467
Track not present in AccurateRip database
Copy OK

Track 4 Filename I:\DL\Iannis Xenakis - ALPHA & OMEGA CD1 (2011) [FLAC]\04 - Analogique A Et B (1958-1959).wav Pre-gap length 0:00:03.46 Peak level 75.6 %
Extraction speed 6.8 X
Track quality 100.0 %
Test CRC AA2C1AD1
Copy CRC AA2C1AD1
Track not present in AccurateRip database
Copy OK

Track 5 Filename I:\DL\Iannis Xenakis - ALPHA & OMEGA CD1 (2011) [FLAC]\05 - Orient-Occident (1960).wav Pre-gap length 0:00:01.56 Peak level 99.9 %
Extraction speed 7.7 X
Track quality 100.0 %
Test CRC 08645771
Copy CRC 08645771
Track not present in AccurateRip database
Copy OK

Track 6 Filename I:\DL\Iannis Xenakis - ALPHA & OMEGA CD1 (2011) [FLAC]\06 - Morsima-Amorsima (1962).wav Pre-gap length 0:00:02.18 Peak level 99.9 %
Extraction speed 8.4 X
Track quality 100.0 %
Test CRC 7AC5C4B1
Copy CRC 7AC5C4B1
Track not present in AccurateRip database
Copy OK

Track 7 Filename I:\DL\Iannis Xenakis - ALPHA & OMEGA CD1 (2011) [FLAC]\07 - Nomos Alpha (1966).wav Pre-gap length 0:00:03.84 Peak level 80.0 %
Extraction speed 9.1 X
Track quality 100.0 %
Test CRC 5E4435B3
Copy CRC 5E4435B3
Track not present in AccurateRip database
Copy OK

Track 8 Filename I:\DL\Iannis Xenakis - ALPHA & OMEGA CD1 (2011) [FLAC]\08 - Anaktoria (1969).wav Pre-gap length 0:00:03.30 Peak level 100.0 %
Extraction speed 9.6 X
Track quality 100.0 %
Test CRC E3ABF5B6
Copy CRC E3ABF5B6
Track not present in AccurateRip database
Copy OK

None of the tracks are present in the AccurateRip database

No errors occurred

End of status report

- CUETools DB Plugin V2.1.3

[CTDB TOCID: VDPgbHC9f8EkQlNPuUVNxA6YIV8-] disk not present in database, Submit result: database access error: The request was aborted: The request was canceled.

==== Log checksum 6F5D4DD3ABC96D9D5A375947E16E1BC1611C044A1237573C6705F834A2CFA5A5 ====

Exact Audio Copy V1.0 beta 3 from 29. August 2011

EAC extraction logfile from 10. February 2012, 19:18

Iannis Xenakis / Alpha & Omega CD2

Used drive : PLEXTOR DVDR PX-860A Adapter: 0 ID: 0

Read mode : Secure
Utilize accurate stream : Yes
Defeat audio cache : Yes
Make use of C2 pointers : No

Read offset correction

: 96
Overread into Lead-In and Lead-Out : No
Fill up missing offset samples with silence : Yes
Delete leading and trailing silent blocks : No
Null samples used in CRC calculations : Yes
Used interface
: Native Win32 interface for Win NT & 2000
Gap handling
: Appended to previous track

Used output format : User Defined Encoder
Selected bitrate : 1024 kBit/s
Quality : High
Add ID3 tag : No
Command line compressor : C:\Program Files\Exact Audio Copy 3\Flac\flac.exe
Additional command line options : -8 -V -T "ARTIST=%artist%" -T "TITLE=%title%" -T "ALBUM=%albumtitle%" -T "DATE=%year%" -T "TRACKNUMBER=%tracknr%" -T "GENRE=%genre%" -T "PERFORMER=%albuminterpret%" -T "COMPOSER=%composer%" %haslyrics%--tag-from-file=LYRICS="%lyricsfile%"%haslyrics% -T "ALBUMARTIST=%albumartist%" -T "DISCNUMBER=%cdnumber%" -T "TOTALDISCS=%totalcds%" -T "TOTALTRACKS=%numtracks%" -T "COMMENT=%comment%" %source% -o %dest%

TOC of the extracted CD Track | Start | Length | Start sector | End sector
--1 | 0:00.00 | 11:33.62 | 0 | 52036 2 | 11:33.62 | 30:00.74 | 52037 | 187110 3 | 41:34.61 | 11:57.71 | 187111 | 240956 4 | 53:32.57 | 11:28.04 | 240957 | 292560

Track 1 Filename I:\DL\Iannis Xenakis - Alpha & Omega CD2 (2011) [FLAC]\01 - Nuits.wav Pre-gap length 0:00:02.00 Peak level 100.0 %
Extraction speed 5.5 X
Track quality 100.0 %
Test CRC CCDCB75E
Copy CRC CCDCB75E
Track not present in AccurateRip database
Copy OK

Track 2 Filename I:\DL\Iannis Xenakis - Alpha & Omega CD2 (2011) [FLAC]\02 - Persephassa.wav Pre-gap length 0:00:01.56 Peak level 100.0 %
Extraction speed 7.5 X
Track quality 100.0 %
Test CRC D6518083
Copy CRC D6518083
Track not present in AccurateRip database
Copy OK

Track 3 Filename I:\DL\Iannis Xenakis - Alpha & Omega CD2 (2011) [FLAC]\03 - Synaphai.wav Pre-gap length 0:00:01.56 Peak level 64.1 %
Extraction speed 8.8 X
Track quality 100.0 %
Test CRC 92DBFC96
Copy CRC 92DBFC96
Track not present in AccurateRip database
Copy OK

Track 4 Filename I:\DL\Iannis Xenakis - Alpha & Omega CD2 (2011) [FLAC]\04 - Aroura.wav Pre-gap length 0:00:01.56 Peak level 27.6 %
Extraction speed 9.4 X
Track quality 100.0 %
Test CRC EE43CA9B
Copy CRC EE43CA9B
Track not present in AccurateRip database
Copy OK

None of the tracks are present in the AccurateRip database

No errors occurred

End of status report

- CUETools DB Plugin V2.1.3

[CTDB TOCID: CqyM0XNlb9z27LSeRFqjml.jLD0-] disk not present in database, Submit result: database access error: The request was aborted: The request was canceled.

==== Log checksum 362E667A4FF62CC577EB745C43B1404A7F65C21645FFFC21A6077FAFB2383B37 ====

Exact Audio Copy V1.0 beta 3 from 29. August 2011

EAC extraction logfile from 10. February 2012, 19:59

Iannis Xenakis / Alpha & Omega CD3

Used drive : PLEXTOR DVDR PX-860A Adapter: 0 ID: 0

Read mode : Secure
Utilize accurate stream : Yes
Defeat audio cache : Yes
Make use of C2 pointers : No

Read offset correction

: 96
Overread into Lead-In and Lead-Out : No
Fill up missing offset samples with silence : Yes
Delete leading and trailing silent blocks : No
Null samples used in CRC calculations : Yes
Used interface
: Native Win32 interface for Win NT & 2000
Gap handling
: Appended to previous track

Used output format : User Defined Encoder
Selected bitrate : 1024 kBit/s
Quality : High
Add ID3 tag : No
Command line compressor : C:\Program Files\Exact Audio Copy 3\Flac\flac.exe
Additional command line options : -8 -V -T "ARTIST=%artist%" -T "TITLE=%title%" -T "ALBUM=%albumtitle%" -T "DATE=%year%" -T "TRACKNUMBER=%tracknr%" -T "GENRE=%genre%" -T "PERFORMER=%albuminterpret%" -T "COMPOSER=%composer%" %haslyrics%--tag-from-file=LYRICS="%lyricsfile%"%haslyrics% -T "ALBUMARTIST=%albumartist%" -T "DISCNUMBER=%cdnumber%" -T "TOTALDISCS=%totalcds%" -T "TOTALTRACKS=%numtracks%" -T "COMMENT=%comment%" %source% -o %dest%

TOC of the extracted CD Track | Start | Length | Start sector | End sector
--1 | 0:00.00 | 19:29.26 | 0 | 87700 2 | 19:29.26 | 46:23.11 | 87701 | 296436

Track 1 Filename I:\DL\Iannis Xenakis - Alpha & Omega CD3 (2011) [FLAC]\01 - Antikhthon.wav Pre-gap length 0:00:02.00 Peak level 68.8 %
Extraction speed 6.1 X
Track quality 100.0 %
Test CRC 8B5A307A
Copy CRC 8B5A307A
Track not present in AccurateRip database
Copy OK

Track 2 Filename I:\DL\Iannis Xenakis - Alpha & Omega CD3 (2011) [FLAC]\02 - Persepolis.wav Pre-gap length 0:00:02.88 Peak level 100.0 %
Extraction speed 8.4 X
Track quality 99.9 %
Test CRC B45F921F
Copy CRC B45F921F
Track not present in AccurateRip database
Copy OK

None of the tracks are present in the AccurateRip database

No errors occurred

End of status report

- CUETools DB Plugin V2.1.3

[CTDB TOCID: ws7GHXeI85xJaP.XlX98KPueKOI-] disk not present in database, Submit result: database access error: The request was aborted: The request was canceled.

==== Log checksum 22F66D3F2B840AAC5846B6B49FA03FDF60E9F910DB329DB6859E585CE9FBBB44 ====

Exact Audio Copy V1.0 beta 3 from 29. August 2011

EAC extraction logfile from 10. February 2012, 20:31

Iannis Xenakis / Alpha & Omega CD4

Used drive : PLEXTOR DVDR PX-860A Adapter: 0 ID: 0

Read mode : Secure
Utilize accurate stream : Yes
Defeat audio cache : Yes
Make use of C2 pointers : No

Read offset correction

: 96
Overread into Lead-In and Lead-Out : No
Fill up missing offset samples with silence : Yes
Delete leading and trailing silent blocks : No
Null samples used in CRC calculations : Yes
Used interface
: Native Win32 interface for Win NT & 2000
Gap handling
: Appended to previous track

Used output format : User Defined Encoder
Selected bitrate : 1024 kBit/s
Quality : High
Add ID3 tag : No
Command line compressor : C:\Program Files\Exact Audio Copy 3\Flac\flac.exe
Additional command line options : -8 -V -T "ARTIST=%artist%" -T "TITLE=%title%" -T "ALBUM=%albumtitle%" -T "DATE=%year%" -T "TRACKNUMBER=%tracknr%" -T "GENRE=%genre%" -T "PERFORMER=%albuminterpret%" -T "COMPOSER=%composer%" %haslyrics%--tag-from-file=LYRICS="%lyricsfile%"%haslyrics% -T "ALBUMARTIST=%albumartist%" -T "DISCNUMBER=%cdnumber%" -T "TOTALDISCS=%totalcds%" -T "TOTALTRACKS=%numtracks%" -T "COMMENT=%comment%" %source% -o %dest%

TOC of the extracted CD Track | Start | Length | Start sector | End sector
--1 | 0:00.00 | 4:14.06 | 0 | 19055 2 | 4:14.06 | 6:25.39 | 19056 | 47969 3 | 10:39.45 | 12:03.21 | 47970 | 102215 4 | 22:42.66 | 7:38.11 | 102216 | 136576 5 | 30:21.02 | 17:00.07 | 136577 | 213083 6 | 47:21.09 | 12:27.15 | 213084 | 269123 7 | 59:48.24 | 4:05.09 | 269124 | 287507

Track 1 Filename I:\DL\Iannis Xenakis - Alpha & Omega CD4 (2011) [FLAC]\01 - Charisma.wav Pre-gap length 0:00:02.00 Peak level 99.9 %
Extraction speed 4.8 X
Track quality 100.0 %
Test CRC FF7D9748
Copy CRC FF7D9748
Track not present in AccurateRip database
Copy OK

Track 2 Filename I:\DL\Iannis Xenakis - Alpha & Omega CD4 (2011) [FLAC]\02 - Mikka, Mikka ''S''.wav Pre-gap length 0:00:03.05 Peak level 97.7 %
Extraction speed 5.6 X
Track quality 100.0 %
Test CRC E2FFE7B8
Copy CRC E2FFE7B8
Track not present in AccurateRip database
Copy OK

Track 3 Filename I:\DL\Iannis Xenakis - Alpha & Omega CD4 (2011) [FLAC]\03 - Mists.wav Pre-gap length 0:00:03.05 Peak level 97.9 %
Extraction speed 6.7 X
Track quality 100.0 %
Test CRC 7541872D
Copy CRC 7541872D
Track not present in AccurateRip database
Copy OK

Track 4 Filename I:\DL\Iannis Xenakis - Alpha & Omega CD4 (2011) [FLAC]\04 - Keren.wav Pre-gap length 0:00:02.38 Peak level 59.8 %
Extraction speed 6.8 X
Track quality 99.9 %
Test CRC A07CDBA5
Copy CRC A07CDBA5
Track not present in AccurateRip database
Copy OK

Track 5 Filename I:\DL\Iannis Xenakis - Alpha & Omega CD4 (2011) [FLAC]\05 - Keqrops.wav Pre-gap length 0:00:05.81 Peak level 100.0 %
Extraction speed 8.4 X
Track quality 100.0 %
Test CRC 6A0422B5
Copy CRC 6A0422B5
Track not present in AccurateRip database
Copy OK

Track 6 Filename I:\DL\Iannis Xenakis - Alpha & Omega CD4 (2011) [FLAC]\06 - Oophaa.wav Pre-gap length 0:00:01.56 Peak level 98.0 %
Extraction speed 9.2 X
Track quality 100.0 %
Test CRC 324F8BD0
Copy CRC 324F8BD0
Track not present in AccurateRip database
Copy OK

Track 7 Filename I:\DL\Iannis Xenakis - Alpha & Omega CD4 (2011) [FLAC]\07 - O-Mega.wav Pre-gap length 0:00:03.52 Peak level 98.8 %
Extraction speed 8.7 X
Track quality 100.0 %
Test CRC E97B4DAC
Copy CRC E97B4DAC
Track not present in AccurateRip database
Copy OK

None of the tracks are present in the AccurateRip database

No errors occurred

End of status report

- CUETools DB Plugin V2.1.3

[CTDB TOCID: ova6LqLk1e24wgb3gn_oBFZrl4I-] disk not present in database, Submit result: database access error: The request was aborted: The request was canceled.

==== Log checksum E83D4CA8A6209CE85548346C0D8EA9D1BCB50C2B9BB4BF99ED801A5B669F1B18 ====

Iannis Xenakis - Alpha & Omega (2011) [4CD Set] {Universal Music France}


All thanks goes to the original releaser!
DOWNLOAD LINKS:
Buy Premium To Support Me & Get Resumable Support & Max Speed

Rapidgator.net:
0xd3j.iannisxenakisalfaomegaARTWORK.rar.html
0xd3j.iannisxenakisalfaomegaCD1.part1.rar.html
0xd3j.iannisxenakisalfaomegaCD1.part2.rar.html
0xd3j.iannisxenakisalfaomegaCD1MP.rar.html
0xd3j.iannisxenakisalfaomegaCD2.part1.rar.html
0xd3j.iannisxenakisalfaomegaCD2.part2.rar.html
0xd3j.iannisxenakisalfaomegaCD2MP.rar.html
0xd3j.iannisxenakisalfaomegaCD3.part1.rar.html
0xd3j.iannisxenakisalfaomegaCD3.part2.rar.html
0xd3j.iannisxenakisalfaomegaCD3MP.rar.html
0xd3j.iannisxenakisalfaomegaCD4.part1.rar.html
0xd3j.iannisxenakisalfaomegaCD4.part2.rar.html
0xd3j.iannisxenakisalfaomegaCD4MP.rar.html

Uploaded.net:
0xd3j.iannisxenakisalfaomegaARTWORK.rar
0xd3j.iannisxenakisalfaomegaCD1.part1.rar
0xd3j.iannisxenakisalfaomegaCD1.part2.rar
0xd3j.iannisxenakisalfaomegaCD1MP.rar
0xd3j.iannisxenakisalfaomegaCD2.part1.rar
0xd3j.iannisxenakisalfaomegaCD2.part2.rar
0xd3j.iannisxenakisalfaomegaCD2MP.rar
0xd3j.iannisxenakisalfaomegaCD3.part1.rar
0xd3j.iannisxenakisalfaomegaCD3.part2.rar
0xd3j.iannisxenakisalfaomegaCD3MP.rar
0xd3j.iannisxenakisalfaomegaCD4.part1.rar
0xd3j.iannisxenakisalfaomegaCD4.part2.rar
0xd3j.iannisxenakisalfaomegaCD4MP.rar

Nitroflare.com
0xd3j.iannisxenakisalfaomegaARTWORK.rar
0xd3j.iannisxenakisalfaomegaCD1.part1.rar
0xd3j.iannisxenakisalfaomegaCD1.part2.rar
0xd3j.iannisxenakisalfaomegaCD1MP.rar
0xd3j.iannisxenakisalfaomegaCD2.part1.rar
0xd3j.iannisxenakisalfaomegaCD2.part2.rar
0xd3j.iannisxenakisalfaomegaCD2MP.rar
0xd3j.iannisxenakisalfaomegaCD3.part1.rar
0xd3j.iannisxenakisalfaomegaCD3.part2.rar
0xd3j.iannisxenakisalfaomegaCD3MP.rar
0xd3j.iannisxenakisalfaomegaCD4.part1.rar
0xd3j.iannisxenakisalfaomegaCD4.part2.rar
0xd3j.iannisxenakisalfaomegaCD4MP.rar

Uploadable.ch:
0xd3j.iannisxenakisalfaomegaARTWORK.rar
0xd3j.iannisxenakisalfaomegaCD1.part1.rar
0xd3j.iannisxenakisalfaomegaCD1.part2.rar
0xd3j.iannisxenakisalfaomegaCD1MP.rar
0xd3j.iannisxenakisalfaomegaCD2.part1.rar
0xd3j.iannisxenakisalfaomegaCD2.part2.rar
0xd3j.iannisxenakisalfaomegaCD2MP.rar
0xd3j.iannisxenakisalfaomegaCD3.part1.rar
0xd3j.iannisxenakisalfaomegaCD3.part2.rar
0xd3j.iannisxenakisalfaomegaCD3MP.rar
0xd3j.iannisxenakisalfaomegaCD4.part1.rar
0xd3j.iannisxenakisalfaomegaCD4.part2.rar
0xd3j.iannisxenakisalfaomegaCD4MP.rar

Links are Interchangeable - No Password - Single Extraction
Direct Download


Tags: Iannis, Xenakis, Universal, France

Iannis Xenakis - Alpha & Omega (2011) [4CD Set] {Universal Music France} Fast Download via Rapidshare Hotfile Fileserve Filesonic Megaupload, Iannis Xenakis - Alpha & Omega (2011) [4CD Set] {Universal Music France} Torrents and Emule Download or anything related.
Dear visitor, you went to website as unregistered user.
We encourage you to Register or Login to website under your name.
Information
Members of Guest cannot leave comments.