Starship - Love Among The Cannibals (1989)

Category: Music | Comment: 0

Download Now

Starship - Love Among The Cannibals (1989)

Starship - Love Among The Cannibals (1989)
EAC Rip | FLAC (Img) + Cue + Log ~ 371 Mb | MP3 CBR320 ~ 128 Mb
Scans (JPG, 600 dpi) ~ 130 Mb | RAR 5% Recovery
Rock, AOR | RCA #PD90387

"Starship is an American rock band established in 1985. Although a continuation of Jefferson Starship, its change in musical direction, loss of key Jefferson Starship personnel, and name change sparked a new identity. Love Among the Cannibals is the third album released in 1989 by rock band Starship. It was the first album after Grace Slick's departure from the band, and their last full-length studio release until Loveless Fascination in 2013. The song "Wild Again" had previously been produced for the soundtrack to Cocktail (1988), and was included as a bonus track for the album's CD release. The album had one top 20 single on the Billboard charts, "It's Not Enough", which peaked at No. 12 in October 1989 and was their final Top-40 hit, but the album itself only climbed to No. 64. The track "I'll Be There" went on to being featured in the end credits of Gross Anatomy (1989)..."

Wiki | Discogs | All Music
***************

Starship - Love Among The Cannibals (1989)

Track List:

01. The Burn [04:26]
02. It's Not Enough [04:51]
03. Trouble In Mind [04:35]
04. I Didn't Mean To Stay All Night [04:51]
05. Send A Message [04:50]
06. Wild Again [04:44]
07. Love Among The Cannibals [03:44]
08. We Dream In Color [06:28]
09. Healing Waters [04:58]
10. Blaze Of Love [04:36]
11. I'll Be There [05:32]

Exact Audio Copy V1.0 beta 6 from 9. April 2015

EAC extraction logfile from 13. May 2015, 22:23

Starship / Love Among The Cannibals

Used drive : HL-DT-STDVDRAM GH22NS40 Adapter: 1 ID: 0

Read mode : Secure
Utilize accurate stream : Yes
Defeat audio cache : Yes
Make use of C2 pointers : No

Read offset correction

: 667
Overread into Lead-In and Lead-Out : No
Fill up missing offset samples with silence : Yes
Delete leading and trailing silent blocks : No
Null samples used in CRC calculations : Yes
Used interface
: Native Win32 interface for Win NT & 2000

Used output format : User Defined Encoder
Selected bitrate : 1024 kBit/s
Quality : High
Add ID3 tag : Yes
Command line compressor : C:\Program Files\Exact Audio Copy\Flac\flac.exe
Additional command line options : -V -8 -T "Date=%year%" -T "Genre=%genre%" %source%

TOC of the extracted CD Track | Start | Length | Start sector | End sector
--1 | 0:00.32 | 4:25.03 | 32 | 19909 2 | 4:25.35 | 4:50.25 | 19910 | 41684 3 | 9:15.60 | 4:34.52 | 41685 | 62286 4 | 13:50.37 | 4:50.48 | 62287 | 84084 5 | 18:41.10 | 4:49.50 | 84085 | 105809 6 | 23:30.60 | 4:43.52 | 105810 | 127086 7 | 28:14.37 | 3:43.68 | 127087 | 143879 8 | 31:58.30 | 6:27.30 | 143880 | 172934 9 | 38:25.60 | 4:57.70 | 172935 | 195279
10 | 43:23.55 | 4:35.42 | 195280 | 215946
11 | 47:59.22 | 5:31.58 | 215947 | 240829

Range status and errors

Selected range Filename I:\Rips\Starship - Love Among The Cannibals.wav Peak level 98.3 %
Extraction speed 1.7 X
Range quality 100.0 %
Test CRC D65B2192
Copy CRC D65B2192
Copy OK

No errors occurred


AccurateRip summary

Track 1 accurately ripped (confidence 15) [64D14915] (AR v2)
Track 2 accurately ripped (confidence 15) [3374F6FF] (AR v2)
Track 3 accurately ripped (confidence 14) [1FD8F10A] (AR v2)
Track 4 accurately ripped (confidence 15) [69CFB1CC] (AR v2)
Track 5 accurately ripped (confidence 15) ED14655 (AR v2)
Track 6 accurately ripped (confidence 15) [CEF6110E] (AR v2)
Track 7 accurately ripped (confidence 15) [5C905E17] (AR v2)
Track 8 accurately ripped (confidence 14) [96AD24AD] (AR v2)
Track 9 accurately ripped (confidence 15) [E2EB3F53] (AR v2)
Track 10 accurately ripped (confidence 15) [F26DD1C5] (AR v2)
Track 11 accurately ripped (confidence 15) [92386AE8] (AR v2)

All tracks accurately ripped

End of status report

- CUETools DB Plugin V2.1.6

[CTDB TOCID: p6is7mlXVjIYRHqs4SJZq8NWpHs-] found
Submit result:
Track | CTDB Status
1 | (5/5) Accurately ripped
2 | (5/5) Accurately ripped
3 | (5/5) Accurately ripped
4 | (5/5) Accurately ripped
5 | (5/5) Accurately ripped
6 | (5/5) Accurately ripped
7 | (5/5) Accurately ripped
8 | (5/5) Accurately ripped
9 | (5/5) Accurately ripped
10 | (5/5) Accurately ripped
11 | (5/5) Accurately ripped

==== Log checksum E3217C3C693A9C8B9559BD0F522734CF125ED0E80E452967CFD3961C6348E5D5 ====

foobar2000 1.2.6 / Dynamic Range Meter 1.1.1
log date: 2015-09-12 13:01:56

Analyzed: Starship / Love Among The Cannibals

DR Peak RMS Duration Track

DR13 -0.14 dB -15.30 dB 4:25 01-The Burn
DR12 -2.40 dB -16.68 dB 4:50 02-It's Not Enough
DR13 -0.20 dB -15.80 dB 4:35 03-Trouble In Mind
DR12 -1.47 dB -16.70 dB 4:51 04-I Didn't Mean To Stay All Night
DR13 -0.72 dB -16.55 dB 4:50 05-Send A Message
DR11 -1.69 dB -15.87 dB 4:44 06-Wild Again
DR14 -0.62 dB -18.18 dB 3:44 07-Love Among The Cannibals
DR13 -1.47 dB -16.81 dB 6:27 08-We Dream In Color
DR13 -1.05 dB -17.18 dB 4:58 09-Healing Waters
DR14 -0.25 dB -17.33 dB 4:36 10-Blaze Of Love
DR13 -1.45 dB -17.02 dB 5:32 11-I'll Be There

Number of tracks: 11
Official DR value: DR13

Samplerate: 44100 Hz
Channels: 2
Bits per sample: 16
Bitrate: 921 kbps
Codec: FLAC

[CUETools log; Date: 12.09.2015 13:01:09; Version: 2.1.5]
Pregap length 00:00:32.
[CTDB TOCID: p6is7mlXVjIYRHqs4SJZq8NWpHs-] found.
Track | CTDB Status
1 | (7/8) Accurately ripped
2 | (8/8) Accurately ripped
3 | (8/8) Accurately ripped
4 | (8/8) Accurately ripped
5 | (8/8) Accurately ripped
6 | (8/8) Accurately ripped
7 | (8/8) Accurately ripped
8 | (8/8) Accurately ripped
9 | (8/8) Accurately ripped
10 | (8/8) Accurately ripped
11 | (8/8) Accurately ripped
[AccurateRip ID: 001582e8-00bb72a5-8c0c8b0b] found.
Track [ CRC | V2 ] Status
01 [a3bfbad8|64d14915] (15+15/30) Accurately ripped
02 [327cb339|3374f6ff] (16+15/31) Accurately ripped
03 [54ae1a5f|1fd8f10a] (16+14/30) Accurately ripped
04 [d62f0c70|69cfb1cc] (16+15/31) Accurately ripped
05 [a06e4c08|bed14655] (16+15/31) Accurately ripped
06 [f5a01435|cef6110e] (16+15/31) Accurately ripped
07 0855fe3|5c905e17 (16+15/31) Accurately ripped
08 [dfee07cb|96ad24ad] (16+14/30) Accurately ripped
09 [8930d30d|e2eb3f53] (15+15/30) Accurately ripped
10 [eefefac6|f26dd1c5] (16+15/31) Accurately ripped
11 [dcf687d3|92386ae8] (16+15/31) Accurately ripped

Track Peak [ CRC32 ] [W/O NULL] [ LOG ]
-- 98,3 [D65B2192] [7026BD15] CRC32
01 98,3 [84397EDB] [4F08024D]
02 75,8 [09D36946] [D2C7F9DB]
03 97,7 [72ABFBE8] [4F98FBA9]
04 84,4 [29E77330] [8ECA6D44]
05 92,0 [A48B60C0] [91722E18]
06 82,3 [CD6A3C92] [486971C8]
07 93,1 [FBD72819] [16A9BF2D]
08 84,4 [926FEECC] [539A9748]
09 88,5 [FBDF8B13] [26E6EB38]
10 97,1 [2F2BA330] [9891AF3F]
11 84,6 [2FB7865A] [5DC47A82]

Starship - Love Among The Cannibals (1989)

Starship - Love Among The Cannibals (1989)


DOWNLOAD LINKS:
Buy Premium To Support Me & Get Resumable Support & Max Speed


Links are Interchangeable - No Password - Single Extraction
Direct Download


Tags: Starship, Cannibals

Starship - Love Among The Cannibals (1989) Fast Download via Rapidshare Hotfile Fileserve Filesonic Megaupload, Starship - Love Among The Cannibals (1989) Torrents and Emule Download or anything related.
Dear visitor, you went to website as unregistered user.
We encourage you to Register or Login to website under your name.
Information
Members of Guest cannot leave comments.