Janis Joplin - Pearl (1971) [Legacy DCD Edition 2005]

Category: Music | Comment: 0

Download Now

Janis Joplin - Pearl (1971) [Legacy DCD Edition 2005]

Janis Joplin - Pearl (1971) [Legacy 2CD Edition 2005]
EAC-FLAC Images with CUEs & LOGs - 847 MB | Full Scans - 128 MB | MP3 CBR 320 Kbps - 307 MB
Blues-Rock / Hard Rock / Rock & Roll | 135:21 minutes | Label: Columbia Records / Legacy | Cat. # 5151342000

Pearl is an album by Janis Joplin, released on February 1, 1971, just four months after her death from a heroin overdose. It is her fourth album and the only album she recorded with the Full Tilt Boogie Band. The album has a more polished feel than the albums she recorded with Big Brother and the Holding Company and the Kozmic Blues Band due to the expertise of producer Paul A. Rothchild and her new backing musicians. Rothchild was best known as the producer of The Doors, and worked well with Joplin. Together they were able to craft an album that showcased her extraordinary vocal talents. The Full Tilt Boogie Band were the musicians who accompanied her on the famous Festival Express in the summer of 1970, and many of the songs on this album were introduced on the concert stage in Canada. In 2003, the album was ranked number 122 on Rolling Stone magazine's list of the 500 greatest albums of all time.
"allmusic.com says: Janis Joplin's second masterpiece (after Cheap Thrills), Pearl was designed as a showcase for her powerhouse vocals, stripping down the arrangements that had often previously cluttered her music or threatened to drown her out. Thanks also to a more consistent set of songs, the results are magnificent -- given room to breathe, Joplin's trademark rasp conveys an aching, desperate passion on funked-up, bluesy rockers, ballads both dramatic and tender, and her signature song, the posthumous number one hit "Me and Bobby McGee". The unfinished "Buried Alive in the Blues" features no Joplin vocals -- she was scheduled to record them on the day after she was found dead. Its incompleteness mirrors Joplin's career; Pearl's power leaves the listener to wonder what else Joplin could have accomplished, but few artists could ask for a better final statement."


Tracks:

01. Move Over
02. Cry Baby
03. A Woman Left Lonely
04. Half Moon
05. Buried Alive In The Blues
06. My Baby
07. Me And Bobby McGee
08. Mercedes Benz
09. Trust Me
10. Get It While You Can
11. Happy Birthday, John (Happy Trails) - Bonus Track
12. Me And Bobby McGee [Demo Version] - Bonus Track
13. Move Over [Alternate Version] - Bonus Track *
14. Cry Baby [Alternate Version] - Bonus Track
15. My Baby [Alternate Version] - Bonus Track *
16. Pearl nstrumental - Bonus Track *

Bonus CD: Live Festival Express Tour, Canada
Recorded between June 28 and July 4, 1970


01. Tell Mama
02. Half Moon
03. Move Over
04. Maybe *
05. Summertime *
06. Little Girl Blue
07. That's Rock 'N Roll *
08. Try (Just A Little Bit Harder) *
09. Kozmic Blues
10. Piece Of My Heart *
11. Cry Baby *
12. Get It While You Can
13. Ball And Chain

* - previously unissued

Original Recordings Produced by Paul A. Rothchild.
Legacy Edition Produced by Bob Irwin.
Mastered by Vic Anesini at Sony Music Studios, New York.

More information @ Wikipedia

Exact Audio Copy V0.99 prebeta 4 from 23. January 2008

Отчёт EAC об извлечении, выполненном 14. ноября 2010, 18:16

Janis Joplin / Pearl [Legacy Edition] CD 1

Дисковод: Optiarc DVD RW AD-7200A Adapter: 0 ID: 1

Режим чтения : Достоверность
Использование точного потока : Да
Отключение кэша аудио : Да
Использование указателей C2 : Нет

Коррекция смещения при чтении : 48
Способность читать области Lead-in и Lead-out : Нет
Заполнение пропущенных сэмплов тишиной : Да
Удаление блоков с тишиной в начале и конце : Нет
При вычислениях CRC использовались нулевые сэмплы : Да
Интерфейс : Встроенный Win32-интерфейс для Win NT/2000

Выходной формат : Пользовательский кодировщик
Выбранный битрейт : 128 kBit/s
Качество : Высокий
Добавление ID3-тэга : Нет
Утилита сжатия : C:\Program Files\Exact Audio Copy\wavpack.exe
Дополнительные параметры : -w "Artist=%a" -w "Title=%t" -w "Album=%g" -w "Year=%y" -w "Track=%n" -w "Genre=%m" -h %s %d

TOC извлечённого CD Трек | Старт | Длительность | Начальный сектор | Конечный сектор

1 | 0:00.00 | 3:43.62 | 0 | 16786
2 | 3:43.62 | 3:58.45 | 16787 | 34681
3 | 7:42.32 | 3:29.50 | 34682 | 50406
4 | 11:12.07 | 3:53.60 | 50407 | 67941
5 | 15:05.67 | 2:27.25 | 67942 | 78991
6 | 17:33.17 | 3:45.38 | 78992 | 95904
7 | 21:18.55 | 4:31.25 | 95905 | 116254
8 | 25:50.05 | 1:47.65 | 116255 | 124344
9 | 27:37.70 | 3:17.60 | 124345 | 139179
10 | 30:55.55 | 3:28.07 | 139180 | 154786
11 | 34:23.62 | 1:11.13 | 154787 | 160124
12 | 35:35.00 | 4:46.55 | 160125 | 181629
13 | 40:21.55 | 4:27.12 | 181630 | 201666
14 | 44:48.67 | 4:58.38 | 201667 | 224054
15 | 49:47.30 | 3:59.00 | 224055 | 241979
16 | 53:46.30 | 4:27.00 | 241980 | 262004

Характеристики диапазона извлечения и сообщения об ошибках

Выбранный диапазон Имя файла Y:\Releases\Janis Joplin\Pearl (2005)\Janis Joplin - Pearl (Legacy Edition) (2005)\Janis Joplin - Pearl [Legacy Edition] CD 1.wav Пиковый уровень 100.0 %
Качество диапазона 100.0 %
CRC теста 5B93E933
CRC копии 5B93E933
Копирование... OK

Ошибок не произошло


AccurateRip: сводка

Трек 1 точное извлечение (доверие 32) [2CCE824C]
Трек 2 точное извлечение (доверие 33) [5A135B12]
Трек 3 точное извлечение (доверие 33) [66852D29]
Трек 4 точное извлечение (доверие 33) [D673F3FD]
Трек 5 точное извлечение (доверие 33) [CED8351F]
Трек 6 точное извлечение (доверие 33) [DCEA766F]
Трек 7 точное извлечение (доверие 33) [4DB46D8C]
Трек 8 точное извлечение (доверие 34) [9B6FB739]
Трек 9 точное извлечение (доверие 33) 7A1B9FD
Трек 10 точное извлечение (доверие 33) [C113B36A]
Трек 11 точное извлечение (доверие 32) [9B4FA561]
Трек 12 точное извлечение (доверие 32) [92468245]
Трек 13 точное извлечение (доверие 32) [ADFB53A6]
Трек 14 точное извлечение (доверие 32) [C07132B0]
Трек 15 точное извлечение (доверие 31) [DF7A7FDE]
Трек 16 точное извлечение (доверие 32) [6BBA0F02]

Все треки извлечены точно

Конец отчёта

-

Track [ CRC ] Status
01 [2cce824c] (37/64) Accurately ripped
02 [5a135b12] (38/65) Accurately ripped
03 [66852d29] (38/65) Accurately ripped
04 [d673f3fd] (38/64) Accurately ripped
05 [ced8351f] (38/64) Accurately ripped
06 [dcea766f] (38/64) Accurately ripped
07 [4db46d8c] (38/64) Accurately ripped
08 [9b6fb739] (39/64) Accurately ripped
09 7a1b9fd (37/63) Accurately ripped
10 [c113b36a] (38/62) Accurately ripped
11 [9b4fa561] (37/62) Accurately ripped
12 [92468245] (37/62) Accurately ripped
13 [adfb53a6] (37/62) Accurately ripped
14 [c07132b0] (37/62) Accurately ripped
15 [df7a7fde] (36/61) Accurately ripped
16 [6bba0f02] (37/62) Accurately ripped
Offsetted by -1281:
01 [7b8148dc] (22/64) Accurately ripped
02 [3c7e9ea4] (22/65) Accurately ripped
03 [7d69f9ff] (22/65) Accurately ripped
04 [69101ec3] (21/64) Accurately ripped
05 [dd65cf77] (21/64) Accurately ripped
06 [9f0fcf04] (21/64) Accurately ripped
07 3bc6d4d (21/64) Accurately ripped
08 [4a7cca59] (20/64) Accurately ripped
09 4a6bdbc (21/63) Accurately ripped
10 [ceea5456] (19/62) Accurately ripped
11 [5bbea785] (20/62) Accurately ripped
12 [4476eff2] (20/62) Accurately ripped
13 [755f73a6] (20/62) Accurately ripped
14 [4d96e5ce] (20/62) Accurately ripped
15 [aa794c84] (20/61) Accurately ripped
16 [0df90d47] (20/62) Accurately ripped

Track Peak [ CRC32 ] [W/O NULL] [ LOG ]
-- 100,0 [5B93E933] [7245214C] CRC32
01 99,9 [7BAFFD84] [3B8EC015]
02 99,9 [1FEE930F] [5DAFA4AB]
03 99,0 [CEE6E70B] [C06C6449]
04 89,9 [C9322B62] 84BA0D5
05 89,4 [07065191] [ABB5B00E]
06 99,9 [26F825FF] [EA5127FF]
07 89,0 [CF9342CC] [64DEEC3A]
08 65,3 [2777CA55] 1DE4D60
09 99,7 [FF39B147] [EC3CB794]
10 99,9 [681221E5] [98ABB3B5]
11 81,9 [5FC05A65] [74FC003D]
12 100,0 [56B98121] [CF93AFDB]
13 99,8 [96759327] [A74DBEC4]
14 99,8 [F112D46A] [1D15A249]
15 100,0 [148C4B1B] [F2C9F8C0]
16 89,6 DA42018 [638EDBE3]

**************************************************

Exact Audio Copy V0.99 prebeta 4 from 23. January 2008

Отчёт EAC об извлечении, выполненном 14. ноября 2010, 18:57

Janis Joplin / Pearl [Legacy Edition CD2]

Дисковод: Optiarc DVD RW AD-7200A Adapter: 0 ID: 1

Режим чтения : Достоверность
Использование точного потока : Да
Отключение кэша аудио : Да
Использование указателей C2 : Нет

Коррекция смещения при чтении : 48
Способность читать области Lead-in и Lead-out : Нет
Заполнение пропущенных сэмплов тишиной : Да
Удаление блоков с тишиной в начале и конце : Нет
При вычислениях CRC использовались нулевые сэмплы : Да
Интерфейс : Встроенный Win32-интерфейс для Win NT/2000

Выходной формат : Пользовательский кодировщик
Выбранный битрейт : 128 kBit/s
Качество : Высокий
Добавление ID3-тэга : Нет
Утилита сжатия : C:\Program Files\Exact Audio Copy\wavpack.exe
Дополнительные параметры : -w "Artist=%a" -w "Title=%t" -w "Album=%g" -w "Year=%y" -w "Track=%n" -w "Genre=%m" -h %s %d

TOC извлечённого CD Трек | Старт | Длительность | Начальный сектор | Конечный сектор

1 | 0:00.00 | 6:47.22 | 0 | 30546
2 | 6:47.22 | 4:38.13 | 30547 | 51409
3 | 11:25.35 | 4:41.42 | 51410 | 72526
4 | 16:07.02 | 3:56.73 | 72527 | 90299
5 | 20:04.00 | 4:39.55 | 90300 | 111279
6 | 24:43.55 | 5:10.35 | 111280 | 134564
7 | 29:54.15 | 5:03.45 | 134565 | 157334
8 | 34:57.60 | 9:11.10 | 157335 | 198669
9 | 44:08.70 | 5:29.02 | 198670 | 223346
10 | 49:37.72 | 5:21.58 | 223347 | 247479
11 | 54:59.55 | 6:31.52 | 247480 | 276856
12 | 61:31.32 | 7:20.70 | 276857 | 309926
13 | 68:52.27 | 8:15.20 | 309927 | 347071

Характеристики диапазона извлечения и сообщения об ошибках

Выбранный диапазон Имя файла Y:\Releases\Janis Joplin\Pearl (2005)\Janis Joplin - Pearl (Legacy Edition) (2005)\Janis Joplin - Pearl [Legacy Edition CD2].wav Пиковый уровень 99.8 %
Качество диапазона 99.9 %
CRC теста 2896075F
CRC копии 2896075F
Копирование... OK

Ошибок не произошло


AccurateRip: сводка

Трек 1 точное извлечение (доверие 31) [FD610AA0]
Трек 2 точное извлечение (доверие 30) [76A441D6]
Трек 3 точное извлечение (доверие 30) [62A2430E]
Трек 4 точное извлечение (доверие 30) [02C54307]
Трек 5 точное извлечение (доверие 30) [6D085DE3]
Трек 6 точное извлечение (доверие 30) [5D733B3A]
Трек 7 точное извлечение (доверие 30) 4F7D7E1
Трек 8 точное извлечение (доверие 29) [305E61B9]
Трек 9 точное извлечение (доверие 30) 39B5CA8
Трек 10 точное извлечение (доверие 30) [DE660945]
Трек 11 точное извлечение (доверие 30) [AD03AE36]
Трек 12 точное извлечение (доверие 29) [A1E8ABAD]
Трек 13 точное извлечение (доверие 29) [AA956052]

Все треки извлечены точно

Конец отчёта

-

Track [ CRC ] Status
01 [fd610aa0] (35/67) Accurately ripped
02 [76a441d6] (34/65) Accurately ripped
03 [62a2430e] (34/65) Accurately ripped
04 [02c54307] (34/66) Accurately ripped
05 [6d085de3] (34/66) Accurately ripped
06 [5d733b3a] (34/66) Accurately ripped
07 4f7d7e1 (34/66) Accurately ripped
08 [305e61b9] (33/65) Accurately ripped
09 39b5ca8 (34/65) Accurately ripped
10 [de660945] (34/66) Accurately ripped
11 [ad03ae36] (34/66) Accurately ripped
12 [a1e8abad] (34/65) Accurately ripped
13 [aa956052] (34/66) Accurately ripped
Offsetted by -682:
01 [f1ad989d] (21/67) Accurately ripped
02 [d0f339d0] (21/65) Accurately ripped
03 [98031661] (21/65) Accurately ripped
04 [58f4729b] (21/66) Accurately ripped
05 [e1c805d3] (21/66) Accurately ripped
06 [353c8dd6] (21/66) Accurately ripped
07 [46fa6e22] (21/66) Accurately ripped
08 [437a2955] (21/65) Accurately ripped
09 [abb51ada] (21/65) Accurately ripped
10 [e322229c] (21/66) Accurately ripped
11 [855df077] (21/66) Accurately ripped
12 [6f3cc80e] (21/65) Accurately ripped
13 [2c17b4d8] (21/66) Accurately ripped
Offsetted by -48:
01 [a42808b1] (06/67) Accurately ripped
02 [f06f02c9] (05/65) Accurately ripped
03 [90ea5277] (05/65) Accurately ripped
04 [23dda043] (06/66) Accurately ripped
05 [703d5f3a] (06/66) Accurately ripped
06 [1bf40d5e] (06/66) Accurately ripped
07 [4665e8c9] (06/66) Accurately ripped
08 [0bfd4d41] (06/65) Accurately ripped
09 [7a52aa2d] (05/65) Accurately ripped
10 [506df86c] (06/66) Accurately ripped
11 13e88fc (06/66) Accurately ripped
12 [ee01d0b2] (05/65) Accurately ripped
13 [1fc4101b] (06/66) Accurately ripped

Track Peak [ CRC32 ] [W/O NULL] [ LOG ]
-- 99,8 [2896075F] [9FD246B2] CRC32
01 99,8 [617CEF03] [EA8675C6]
02 99,8 [7B380FDE] [CDA4E91E]
03 99,8 [AFAF43D6] [D0863C79]
04 99,8 [28A8412E] 8A9A9B3
05 99,8 [A6D30FBC] 088D326
06 99,8 [C82AA35B] [4C2FD21E]
07 99,8 [37FC83A4] [7041040B]
08 99,8 [6280C87F] [45085315]
09 99,8 [8192BA8E] [12CD9844]
10 94,3 [1C5EEFE0] [A6E5217D]
11 99,8 [CE8B942F] [CB08EBA1]
12 92,9 [5C78C0D8] [378EF789]
13 99,8 [E40DB6DE] [96258D9A]

Thanks to y-soft!
DOWNLOAD LINKS:
Buy Premium To Support Me & Get Resumable Support & Max Speed


Links are Interchangeable - No Password - Single Extraction
Direct Download


Tags: Joplin, Legacy

Janis Joplin - Pearl (1971) [Legacy DCD Edition 2005] Fast Download via Rapidshare Hotfile Fileserve Filesonic Megaupload, Janis Joplin - Pearl (1971) [Legacy DCD Edition 2005] Torrents and Emule Download or anything related.
Dear visitor, you went to website as unregistered user.
We encourage you to Register or Login to website under your name.
Information
Members of Guest cannot leave comments.