Elton John - The One (1992)

Category: Music | Comment: 0

Download Now

Elton John - The One (1992)

Elton John - The One (1992)
EAC | Flac(Image) + Cue + Log & MP3 CBR 320Kbps
1998 | Mercury, 558 480-2 | ~ 464 or 161 Mb | Scans(600dpi, jpg) -> 53 Mb
Pop Rock / Classic Rock

"Elton John once claimed that he could remember The One among his latter-day albums because it was the first he recorded without drugs or alcohol. If true -- and there's no reason to doubt him -- that could be the reason why this has more character than most of his albums since the early '80s, holding together well in its deliberately measured, mature songcraft by Elton and Bernie Taupin..."


Tracklist:

01. Simple Life 6:26
02. The One 5:53
03. Sweat It Out 6:39
04. Runaway Train 5:23
05. Whitewash County 5:30
06. The North 5:15
07. When A Woman Doesn't Want You 4:56
08. Emily 4:58
09. On Dark Street 4:43
10. Understanding Women 5:03
11. The Last Song 3:33
12. Suit Of Wolves 5:49
13. Fat Boys And Ugly Girls 4:14

Exact Audio Copy V1.1 from 23. June 2015

EAC extraction logfile from 13. September 2015, 12:50

Elton John / The One (558 480-2)

Used drive : PLEXTOR DVDR PX-891SA Adapter: 1 ID: 0

Read mode : Secure
Utilize accurate stream : Yes
Defeat audio cache : Yes
Make use of C2 pointers : No

Read offset correction

: 6
Overread into Lead-In and Lead-Out : No
Fill up missing offset samples with silence : Yes
Delete leading and trailing silent blocks : No
Null samples used in CRC calculations : Yes
Used interface
: Native Win32 interface for Win NT & 2000

Used output format : User Defined Encoder
Selected bitrate : 1024 kBit/s
Quality : High
Add ID3 tag : No
Command line compressor : C:\Program Files\Exact Audio Copy\Flac\flac.exe
Additional command line options : -V -8 -T "Genre=%genre%" -T "Artist=%artist%" -T "Title=%title%" -T "Album=%albumtitle%" -T "Date=%year%" -T "Tracknumber=%tracknr%" -T "Comment=%comment%" %source%

TOC of the extracted CD Track | Start | Length | Start sector | End sector
--1 | 0:00.00 | 6:26.00 | 0 | 28949 2 | 6:26.00 | 5:53.12 | 28950 | 55436 3 | 12:19.12 | 6:38.48 | 55437 | 85334 4 | 18:57.60 | 5:22.72 | 85335 | 109556 5 | 24:20.57 | 5:30.18 | 109557 | 134324 6 | 29:51.00 | 5:15.22 | 134325 | 157971 7 | 35:06.22 | 4:55.53 | 157972 | 180149 8 | 40:02.00 | 4:58.27 | 180150 | 202526 9 | 45:00.27 | 4:43.03 | 202527 | 223754
10 | 49:43.30 | 5:03.35 | 223755 | 246514
11 | 54:46.65 | 3:33.10 | 246515 | 262499
12 | 58:20.00 | 5:48.45 | 262500 | 288644
13 | 64:08.45 | 4:14.15 | 288645 | 307709

Range status and errors

Selected range Filename H:\dafnaplus\1992 The One\Elton John - The One (558 480-2).wav Peak level 96.7 %
Extraction speed 8.7 X
Range quality 100.0 %
Test CRC 332B892E
Copy CRC 332B892E
Copy OK

No errors occurred


AccurateRip summary

Track 1 accurately ripped (confidence 9) [88E72D57] (AR v2)
Track 2 accurately ripped (confidence 9) [F57FBD66] (AR v2)
Track 3 accurately ripped (confidence 9) [1442BBAF] (AR v2)
Track 4 accurately ripped (confidence 9) [67E1EAD7] (AR v2)
Track 5 accurately ripped (confidence 9) [F8AB708C] (AR v2)
Track 6 accurately ripped (confidence 9) [4D3D1862] (AR v2)
Track 7 accurately ripped (confidence 9) [ED350646] (AR v2)
Track 8 accurately ripped (confidence 9) [AEC84E33] (AR v2)
Track 9 accurately ripped (confidence 8) [5B5AB7AE] (AR v2)
Track 10 accurately ripped (confidence 9) [FA25EC8D] (AR v2)
Track 11 accurately ripped (confidence 8) [193C3837] (AR v2)
Track 12 accurately ripped (confidence 9) [4E2AFBAE] (AR v2)
Track 13 accurately ripped (confidence 9) [E676E3F0] (AR v2)

All tracks accurately ripped

End of status report

- CUETools DB Plugin V2.1.6

[CTDB TOCID: wUbr_iMcIJZ6vDcerUJyjdvm_40-] found
Submit result: wUbr_iMcIJZ6vDcerUJyjdvm_40- has been confirmed
Track | CTDB Status
1 | (22/28) Accurately ripped
2 | (22/28) Accurately ripped
3 | (21/28) Accurately ripped
4 | (22/28) Accurately ripped
5 | (22/28) Accurately ripped
6 | (22/28) Accurately ripped
7 | (22/28) Accurately ripped
8 | (22/28) Accurately ripped
9 | (22/28) Accurately ripped
10 | (21/28) Accurately ripped, or (1/28) differs in 1 samples @01:27:29
11 | (22/28) Accurately ripped
12 | (22/28) Accurately ripped
13 | (22/28) Accurately ripped, or (1/28) differs in 1 samples @00:40:61

==== Log checksum C896C17D83C7677D9EEA49CACEB10E8A47780690131B013E171D3E846C7B7EDA ====

foobar2000 1.2.9 / Dynamic Range Meter 1.1.1
log date: 2015-09-19 12:33:52

Analyzed: Elton John / The One (558 480-2)

DR Peak RMS Duration Track

DR10 -0.43 dB -11.83 dB 6:26 01-Simple Life
DR9 -1.15 dB -11.93 dB 5:53 02-The One
DR9 -0.73 dB -11.33 dB 6:39 03-Sweat It Out
DR9 -0.57 dB -10.63 dB 5:23 04-Runaway Train
DR9 -0.49 dB -10.19 dB 5:30 05-Whitewash County
DR10 -0.93 dB -12.69 dB 5:15 06-The North
DR11 -0.55 dB -13.62 dB 4:56 07-When A Woman Doesn't Want You
DR8 -0.78 dB -11.90 dB 4:58 08-Emily
DR11 -0.82 dB -13.17 dB 4:43 09-On Dark Street
DR10 -0.33 dB -11.81 dB 5:03 10-Understanding Women
DR11 -1.36 dB -15.91 dB 3:33 11-The Last Song
DR11 -0.29 dB -12.43 dB 5:49 12-Suit Of Wolves
DR11 -0.45 dB -13.26 dB 4:14 13-Fat Boys And Ugly Girls

Number of tracks: 13
Official DR value: DR10

Samplerate: 44100 Hz
Channels: 2
Bits per sample: 16
Bitrate: 922 kbps
Codec: FLAC

[CUETools log; Date: 19.09.2015 12:14:27; Version: 2.1.4]
[CTDB TOCID: wUbr_iMcIJZ6vDcerUJyjdvm_40-] found.
Track | CTDB Status
1 | (24/30) Accurately ripped
2 | (24/30) Accurately ripped
3 | (23/30) Accurately ripped
4 | (24/30) Accurately ripped
5 | (24/30) Accurately ripped
6 | (24/30) Accurately ripped
7 | (24/30) Accurately ripped
8 | (24/30) Accurately ripped
9 | (24/30) Accurately ripped
10 | (23/30) Accurately ripped, or (1/30) differs in 1 samples @01:27:29
11 | (24/30) Accurately ripped
12 | (24/30) Accurately ripped
13 | (24/30) Accurately ripped, or (1/30) differs in 1 samples @00:40:61
[AccurateRip ID: 0022d772-015689be-b710060d] found.
Track [ CRC | V2 ] Status
01 [7148091f|88e72d57] (14+09/68) Accurately ripped
02 [adef36da|f57fbd66] (14+09/69) Accurately ripped
03 [c91e040f|1442bbaf] (14+09/68) Accurately ripped
04 [86cc97c0|67e1ead7] (14+09/70) Accurately ripped
05 [dcc622ca|f8ab708c] (14+09/68) Accurately ripped
06 b6cc1f4|4d3d1862 (14+09/68) Accurately ripped
07 [659ed134|ed350646] (14+09/68) Accurately ripped
08 [69f521f7|aec84e33] (14+09/68) Accurately ripped
09 9421adb|5b5ab7ae (14+08/67) Accurately ripped
10 [cc898f40|fa25ec8d] (14+09/68) Accurately ripped
11 [23311772|193c3837] (14+08/67) Accurately ripped
12 [35d2c41e|4e2afbae] (14+09/68) Accurately ripped
13 [0e00b841|e676e3f0] (14+09/68) Accurately ripped
Offsetted by -1328:
01 [87abd9d5] (05/68) Accurately ripped
02 [561b67e7] (05/69) Accurately ripped
03 [9a5df0a1] (05/68) Accurately ripped
04 [603401c4] (05/70) Accurately ripped
05 [163b3335] (05/68) Accurately ripped
06 [75cb69be] (05/68) Accurately ripped
07 [604177fe] (05/68) Accurately ripped
08 [a63f46aa] (05/68) Accurately ripped
09 [61d26bf4] (05/67) Accurately ripped
10 [e6e44cd4] (05/68) Accurately ripped
11 [c5141065] (05/67) Accurately ripped
12 [59435cf8] (05/68) Accurately ripped
13 [0c84653c] (05/68) Accurately ripped
Offsetted by -664:
01 [ee69e79c] (04/68) Accurately ripped
02 [35337391] (05/69) Accurately ripped
03 [197c9960] (04/68) Accurately ripped
04 [0ddc5095] (05/70) Accurately ripped
05 [e0327a58] (04/68) Accurately ripped
06 [23b75e0f] (04/68) Accurately ripped
07 [5005bc6f] (04/68) Accurately ripped
08 [ca4e24d6] (04/68) Accurately ripped
09 [df8b4cc6] (04/67) Accurately ripped
10 [52f9d76c] (04/68) Accurately ripped
11 [2d08055c] (04/67) Accurately ripped
12 [c57db47a] (04/68) Accurately ripped
13 [02ce05cb] (04/68) Accurately ripped

Track Peak [ CRC32 ] [W/O NULL] [ LOG ]
-- 96,7 [332B892E] [26A76905] CRC32
01 95,2 [04232328] [A349BF39]
02 87,6 [1FA7884A] [44EED972]
03 91,9 [D92BC56C] [786546F6]
04 93,6 [DE4864DA] [144F5FAF]
05 94,5 [81D53B44] [A376EAE0]
06 89,8 [8628B9C1] [DB9A2347]
07 93,8 [65BFAB8D] [15296AAE]
08 91,4 [17F42C55] [0F3DCE97]
09 91,0 [73D0B116] [C8AC94F1]
10 96,2 A741054 [8787DBB6]
11 85,5 [4F5854A6] 3210A6B
12 96,7 [E34C763C] [29E3EC54]
13 94,9 [E8874079] 2DF11A7

Elton John - The One (1992)

DOWNLOAD LINKS:
Buy Premium To Support Me & Get Resumable Support & Max Speed


Links are Interchangeable - No Password - Single Extraction
Direct Download

Elton John - The One (1992) Fast Download via Rapidshare Hotfile Fileserve Filesonic Megaupload, Elton John - The One (1992) Torrents and Emule Download or anything related.
Dear visitor, you went to website as unregistered user.
We encourage you to Register or Login to website under your name.
Information
Members of Guest cannot leave comments.