VA - Music Of The Millennium (2000) 2CD

Category: Music | Comment: 0

Download Now

VA - Music Of The Millennium (2000) 2CD

VA - Music Of The Millennium (2000) 2CD
EAC | FLAC | Tracks (Cue&Log) ~ 1.05 Gb (incl 5%) | Mp3 (CBR320) ~ 396 Mb (incl 5%) | Scans included
Genre: Rock, Pop Rock, R&B, Disco | Label: Universal/Polystar | # 560 948-2, 560 949-2 | Time: 02:37:06

"2000 2-CD set featuring 39 classic timeless hits from the millennium including Queen, The Rolling Stones, Peter Gabriel, John Lennon, Paul McCartney & Wings, David Bowie, The Who, Elton John, The Beach Boys, Simon And Garfunkel, Derek & The Dominoes, Prince, U2, Bon Jovi, Blondie, Oasis, Lenny Kravitz, Simple Minds, Supertramp, Dire Straits, Tina Turner, Bob Marley, UB40, Kate Bush, Phil Collins, Roxy Music, Rod Stewart, Bee Gees, Michael Jackson, Abba, Janet Jackson, Diana Ross, Marvin Gaye, Barry White, Pet Shop Boys, George Michael, Massive Attack, Texas."

VA - Music Of The Millennium (2000) 2CD

VA - Music Of The Millennium (2000) 2CD


Tracklist:

CD1:

01. Queen - We Are The Champions (03:00)
02. The Rolling Stones - Start Me Up (03:31)
03. Bon Jovi - Livin' On A Prayer (04:00)
04. Dire Straits - Money For Nothing (04:05)
05. U2 - With Or Without You (04:48)
06. Oasis - Wonderwall (04:17)
07. Peter Gabriel - Sledgehammer (04:40)
08. Lenny Kravitz - Are You Gonna Go My Way (03:31)
09. Simple Minds - Don't You Forget About Me (04:18)
10. Robbie Williams - Millennium (04:03)
11. David Bowie - Let's Dance (04:06)
12. Prince - Purpe Rain (04:03)
13. Supertramp - The Logical Song (04:04)
14. Derek & The Dominoes - Layla (02:44)
15. Tina Turner - Simply The Best (04:08)
16. Texas - Say What You Want (03:49)
17. Kate Bush - Wuthering Heights (03:24)
18. Massive Attack - Unfinished Sympathy (05:12)
19. Blondie - Heart Of Glass (04:07)
20. The Who - My Generation (03:16)

CD2:

01. John Lennon - Imagine (03:01)
02. Paul McCartney & Wings - Band On The Run (05:09)
03. Simon & Garfunkel - Bridge Over Troubled Water (04:49)
04. Elton John - Candle In The Wind (03:47)
05. George Michael - Jesus To A Child (04:13)
06. Phil Collins - In The Air Tonight (05:22)
07. Rod Stewart - Maggie May (05:12)
08. Roxy Music - Jealous Guy (04:42)
09. Bee Gees - Stayin' Alive (04:40)
10. Pet Shop Boys - West End Girls (03:51)
11. ABBA - Dancing Queen (03:49)
12. Beach Boys - Good Vibrations (03:35)
13. Diana Ross - Upside Down (03:41)
14. UB40 - Red Red Wine (02:58)
15. Bob Marley - No Woman No Cry (04:03)
16. Michael Jackson - Ain't No Sunshine (04:09)
17. Janet Jackson - Together Again (04:07)
18. Marvin Gaye - I Heard It Through The Grapevine (03:12)
19. Barry White - You're The First The Last My Everything (03:23)


Exact Audio Copy V1.0 beta 3 from 29. August 2011

Отчёт EAC об извлечении, выполненном 30. августа 2015, 15:18

Various / Music Of The Millennium (CD 1/2)

Дисковод: TSSTcorpCDDVDW SH-222BB Adapter: 3 ID: 0

Режим чтения : Достоверность
Использование точного потока : Да
Отключение кэша аудио : Да
Использование указателей C2 : Нет

Коррекция смещения при чтении : 6
Способность читать области Lead-in и Lead-out : Нет
Заполнение пропущенных сэмплов тишиной : Да
Удаление блоков с тишиной в начале и конце : Нет
При вычислениях CRC использовались нулевые сэмплы : Да
Интерфейс : Установленный внешний ASPI-интерфейс
Обработка зазоров
: Добавлено к предыдущему треку

Выходной формат : Пользовательский кодировщик
Выбранный битрейт : 128 kBit/s
Качество : Высокий
Добавление ID3-тега : Нет
Утилита сжатия : C:\Program Files\Exact Audio Copy\FLAC\FLAC.EXE
Дополнительные параметры : -V -8 -T "Genre=%genre%" -T "Artist=%artist%" -T "Title=%title%" -T "Album=%albumtitle%" -T "Date=%year%" -T "Tracknumber=%tracknr%" -T "Comment=%comment%" %source%

TOC извлечённого CD Трек | Старт | Длительность | Начальный сектор | Конечный сектор

1 | 0:00.00 | 3:00.30 | 0 | 13529
2 | 3:00.30 | 3:31.29 | 13530 | 29383
3 | 6:31.59 | 4:00.64 | 29384 | 47447
4 | 10:32.48 | 4:05.34 | 47448 | 65856
5 | 14:38.07 | 4:48.61 | 65857 | 87517
6 | 19:26.68 | 4:17.27 | 87518 | 106819
7 | 23:44.20 | 4:40.25 | 106820 | 127844
8 | 28:24.45 | 3:31.11 | 127845 | 143680
9 | 31:55.56 | 4:18.57 | 143681 | 163087
10 | 36:14.38 | 4:03.62 | 163088 | 181374
11 | 40:18.25 | 4:06.39 | 181375 | 199863
12 | 44:24.64 | 4:03.17 | 199864 | 218105
13 | 48:28.06 | 4:04.18 | 218106 | 236423
14 | 52:32.24 | 2:44.29 | 236424 | 248752
15 | 55:16.53 | 4:08.10 | 248753 | 267362
16 | 59:24.63 | 3:49.65 | 267363 | 284602
17 | 63:14.53 | 3:24.47 | 284603 | 299949
18 | 66:39.25 | 5:12.06 | 299950 | 323355
19 | 71:51.31 | 4:07.29 | 323356 | 341909
20 | 75:58.60 | 3:16.01 | 341910 | 356610

Трек 1 Имя файла I:\MOI_RAZDACI\Music Of The Millennium\VA_Music.Of.The.Millennium_2000\CD-1\01. Queen - We Are The Champions.wav Длина предзазора 0:00:02.00 Пиковый уровень 85.7 %
Скорость извлечения 4.6 X
Качество трека 100.0 %
CRC теста EE7F3790
CRC копии EE7F3790
Точное извлечение (достоверность 10) [5EDB62F0] (AR v2)
Копирование... OK

Трек 2 Имя файла I:\MOI_RAZDACI\Music Of The Millennium\VA_Music.Of.The.Millennium_2000\CD-1\02. The Rolling Stones - Start Me Up.wav Длина предзазора 0:00:00.30 Пиковый уровень 89.9 %
Скорость извлечения 5.1 X
Качество трека 100.0 %
CRC теста 5BB6BE2D
CRC копии 5BB6BE2D
Точное извлечение (достоверность 10) [1F3E8A6A] (AR v2)
Копирование... OK

Трек 3 Имя файла I:\MOI_RAZDACI\Music Of The Millennium\VA_Music.Of.The.Millennium_2000\CD-1\03. Bon Jovi - Livin' On A Prayer.wav Длина предзазора 0:00:00.30 Пиковый уровень 77.3 %
Скорость извлечения 5.5 X
Качество трека 100.0 %
CRC теста D3FEE5FD
CRC копии D3FEE5FD
Точное извлечение (достоверность 10) [FBB07A22] (AR v2)
Копирование... OK

Трек 4 Имя файла I:\MOI_RAZDACI\Music Of The Millennium\VA_Music.Of.The.Millennium_2000\CD-1\04. Dire Straits - Money For Nothing.wav Длина предзазора 0:00:00.31 Пиковый уровень 100.0 %
Скорость извлечения 5.9 X
Качество трека 100.0 %
CRC теста 02D9055F
CRC копии 02D9055F
Точное извлечение (достоверность 11) [72841007] (AR v2)
Копирование... OK

Трек 5 Имя файла I:\MOI_RAZDACI\Music Of The Millennium\VA_Music.Of.The.Millennium_2000\CD-1\05. U2 - With Or Without You.wav Длина предзазора 0:00:00.30 Пиковый уровень 90.0 %
Скорость извлечения 5.3 X
Качество трека 99.9 %
CRC теста 5E41A453
CRC копии 5E41A453
Точное извлечение (достоверность 10) [C280BEFA] (AR v2)
Копирование... OK

Трек 6 Имя файла I:\MOI_RAZDACI\Music Of The Millennium\VA_Music.Of.The.Millennium_2000\CD-1\06. Oasis - Wonderwall.wav Длина предзазора 0:00:00.30 Пиковый уровень 68.2 %
Скорость извлечения 6.7 X
Качество трека 100.0 %
CRC теста 8705EFE4
CRC копии 8705EFE4
Точное извлечение (достоверность 10) [76EB586F] (AR v2)
Копирование... OK

Трек 7 Имя файла I:\MOI_RAZDACI\Music Of The Millennium\VA_Music.Of.The.Millennium_2000\CD-1\07. Peter Gabriel - Sledgehammer.wav Длина предзазора 0:00:00.17 Пиковый уровень 96.1 %
Скорость извлечения 7.0 X
Качество трека 100.0 %
CRC теста BE466217
CRC копии BE466217
Точное извлечение (достоверность 11) [11EDF3DD] (AR v2)
Копирование... OK

Трек 8 Имя файла I:\MOI_RAZDACI\Music Of The Millennium\VA_Music.Of.The.Millennium_2000\CD-1\08. Lenny Kravitz - Are You Gonna Go My Way.wav Длина предзазора 0:00:00.30 Пиковый уровень 71.2 %
Скорость извлечения 5.5 X
Качество трека 99.9 %
CRC теста A6D95DC7
CRC копии A6D95DC7
Точное извлечение (достоверность 11) [ABA3CD1D] (AR v2)
Копирование... OK

Трек 9 Имя файла I:\MOI_RAZDACI\Music Of The Millennium\VA_Music.Of.The.Millennium_2000\CD-1\09. Simple Minds - Don't You Forget About Me.wav Длина предзазора 0:00:00.30 Пиковый уровень 92.4 %
Скорость извлечения 7.5 X
Качество трека 100.0 %
CRC теста A9F67C28
CRC копии A9F67C28
Точное извлечение (достоверность 11) [1F73690C] (AR v2)
Копирование... OK

Трек 10 Имя файла I:\MOI_RAZDACI\Music Of The Millennium\VA_Music.Of.The.Millennium_2000\CD-1\10. Robbie Williams - Millennium.wav Длина предзазора 0:00:00.07 Пиковый уровень 67.5 %
Скорость извлечения 7.7 X
Качество трека 100.0 %
CRC теста 62198376
CRC копии 62198376
Точное извлечение (достоверность 11) [1901916F] (AR v2)
Копирование... OK

Трек 11 Имя файла I:\MOI_RAZDACI\Music Of The Millennium\VA_Music.Of.The.Millennium_2000\CD-1\11. David Bowie - Let's Dance.wav Длина предзазора 0:00:00.06 Пиковый уровень 89.5 %
Скорость извлечения 7.9 X
Качество трека 100.0 %
CRC теста 820E3B27
CRC копии 820E3B27
Точное извлечение (достоверность 10) [FDCD6E2F] (AR v2)
Копирование... OK

Трек 12 Имя файла I:\MOI_RAZDACI\Music Of The Millennium\VA_Music.Of.The.Millennium_2000\CD-1\12. Prince - Purpe Rain.wav Длина предзазора 0:00:00.04 Пиковый уровень 87.4 %
Скорость извлечения 8.2 X
Качество трека 100.0 %
CRC теста 58DFC9F3
CRC копии 58DFC9F3
Точное извлечение (достоверность 11) [1517485C] (AR v2)
Копирование... OK

Трек 13 Имя файла I:\MOI_RAZDACI\Music Of The Millennium\VA_Music.Of.The.Millennium_2000\CD-1\13. Supertramp - The Logical Song.wav Длина предзазора 0:00:00.30 Пиковый уровень 91.4 %
Скорость извлечения 8.4 X
Качество трека 100.0 %
CRC теста 938087A8
CRC копии 938087A8
Точное извлечение (достоверность 10) [27C936F4] (AR v2)
Копирование... OK

Трек 14 Имя файла I:\MOI_RAZDACI\Music Of The Millennium\VA_Music.Of.The.Millennium_2000\CD-1\14. Derek & The Dominoes - Layla.wav Длина предзазора 0:00:00.01 Пиковый уровень 93.3 %
Скорость извлечения 8.1 X
Качество трека 100.0 %
CRC теста 6E554FF3
CRC копии 6E554FF3
Точное извлечение (достоверность 10) 8E0FED6 (AR v2)
Копирование... OK

Трек 15 Имя файла I:\MOI_RAZDACI\Music Of The Millennium\VA_Music.Of.The.Millennium_2000\CD-1\15. Tina Turner - Simply The Best.wav Длина предзазора 0:00:00.29 Пиковый уровень 76.7 %
Скорость извлечения 8.7 X
Качество трека 100.0 %
CRC теста 1E4FD53B
CRC копии 1E4FD53B
Точное извлечение (достоверность 10) [91D4EA67] (AR v2)
Копирование... OK

Трек 16 Имя файла I:\MOI_RAZDACI\Music Of The Millennium\VA_Music.Of.The.Millennium_2000\CD-1\16. Texas - Say What You Want.wav Длина предзазора 0:00:00.06 Пиковый уровень 75.1 %
Скорость извлечения 8.9 X
Качество трека 100.0 %
CRC теста 9C965310
CRC копии 9C965310
Точное извлечение (достоверность 11) [1AB0D6C1] (AR v2)
Копирование... OK

Трек 17 Имя файла I:\MOI_RAZDACI\Music Of The Millennium\VA_Music.Of.The.Millennium_2000\CD-1\17. Kate Bush - Wuthering Heights.wav Длина предзазора 0:00:00.30 Пиковый уровень 89.0 %
Скорость извлечения 9.0 X
Качество трека 100.0 %
CRC теста 016CAC84
CRC копии 016CAC84
Точное извлечение (достоверность 11) [373BB380] (AR v2)
Копирование... OK

Трек 18 Имя файла I:\MOI_RAZDACI\Music Of The Millennium\VA_Music.Of.The.Millennium_2000\CD-1\18. Massive Attack - Unfinished Sympathy.wav Длина предзазора 0:00:00.30 Пиковый уровень 77.6 %
Скорость извлечения 8.0 X
Качество трека 99.9 %
CRC теста 28B77269
CRC копии 28B77269
Точное извлечение (достоверность 11) [CF590D66] (AR v2)
Копирование... OK

Трек 19 Имя файла I:\MOI_RAZDACI\Music Of The Millennium\VA_Music.Of.The.Millennium_2000\CD-1\19. Blondie - Heart Of Glass.wav Длина предзазора 0:00:00.30 Пиковый уровень 82.7 %
Скорость извлечения 9.6 X
Качество трека 100.0 %
CRC теста 7F5A3563
CRC копии 7F5A3563
Точное извлечение (достоверность 10) [E2D2F0A0] (AR v2)
Копирование... OK

Трек 20 Имя файла I:\MOI_RAZDACI\Music Of The Millennium\VA_Music.Of.The.Millennium_2000\CD-1\20. The Who - My Generation.wav Длина предзазора 0:00:00.32 Пиковый уровень 86.0 %
Скорость извлечения 9.3 X
Качество трека 100.0 %
CRC теста 952DE7AA
CRC копии 952DE7AA
Точное извлечение (достоверность 10) [10B43973] (AR v2)
Копирование... OK

Все треки извлечены точно

Ошибок не произошло

Конец отчёта

==== Контрольная сумма отчёта 34FCB536F78F2874BCE90FDF6D486634D647BE951AA310225EE4BCBC9B508978 ====

foobar2000 1.2 / Dynamic Range Meter 1.1.1
log date: 2015-09-21 18:39:42

Analyzed: Blondie / Music Of The Millennium (CD 1/2) (1) Bon Jovi / Music Of The Millennium (CD 1/2) (2) David Bowie / Music Of The Millennium (CD 1/2) (3) Derek & The Dominoes / Music Of The Millennium (CD 1/2) (4) Dire Straits / Music Of The Millennium (CD 1/2) (5) Kate Bush / Music Of The Millennium (CD 1/2) (6) Lenny Kravitz / Music Of The Millennium (CD 1/2) (7) Massive Attack / Music Of The Millennium (CD 1/2) (8) Oasis / Music Of The Millennium (CD 1/2) (9) Peter Gabriel / Music Of The Millennium (CD 1/2) (10) Prince / Music Of The Millennium (CD 1/2) (11) Queen / Music Of The Millennium (CD 1/2) (12) Robbie Williams / Music Of The Millennium (CD 1/2) (13) Simple Minds / Music Of The Millennium (CD 1/2) (14) Supertramp / Music Of The Millennium (CD 1/2) (15) Texas / Music Of The Millennium (CD 1/2) (16) The Rolling Stones / Music Of The Millennium (CD 1/2) (17) The Who / Music Of The Millennium (CD 1/2) (18) Tina Turner / Music Of The Millennium (CD 1/2) (19) U2 / Music Of The Millennium (CD 1/2) (20)

DR Peak RMS Duration Track

DR10 -1.64 dB -12.51 dB 4:07 19-Heart Of Glass
DR8 -2.23 dB -11.78 dB 4:01 03-Livin' On A Prayer
DR13 -0.96 dB -16.14 dB 4:07 11-Let's Dance
DR8 -0.60 dB -10.30 dB 2:44 14-Layla
DR15 0.00 dB -16.98 dB 4:05 04-Money For Nothing
DR11 -1.01 dB -14.13 dB 3:25 17-Wuthering Heights
DR6 -2.95 dB -11.02 dB 3:31 08-Are You Gonna Go My Way
DR12 -2.19 dB -16.30 dB 5:12 18-Unfinished Sympathy
DR6 -3.31 dB -11.28 dB 4:17 06-Wonderwall
DR10 -0.34 dB -12.48 dB 4:40 07-Sledgehammer
DR10 -1.16 dB -14.24 dB 4:03 12-Purpe Rain
DR7 -1.34 dB -12.28 dB 3:00 01-We Are The Champions
DR6 -3.41 dB -11.38 dB 4:04 10-Millennium
DR11 -0.68 dB -13.72 dB 4:19 09-Don't You Forget About Me
DR10 -0.78 dB -13.55 dB 4:04 13-The Logical Song
DR10 -2.48 dB -14.11 dB 3:50 16-Say What You Want
DR11 -0.92 dB -13.70 dB 3:31 02-Start Me Up
DR9 -1.30 dB -11.67 dB 3:16 20-My Generation
DR10 -2.30 dB -13.10 dB 4:08 15-Simply The Best
DR9 -0.91 dB -12.60 dB 4:49 05-With Or Without You

Number of tracks: 20
Official DR value: DR10

Samplerate: 44100 Hz
Channels: 2
Bits per sample: 16
Bitrate: 860 kbps
Codec: FLAC

Exact Audio Copy V1.0 beta 3 from 29. August 2011

Отчёт EAC об извлечении, выполненном 30. августа 2015, 16:01

Various / Music Of The Millennium / Doppel-CD (CD 2/2)

Дисковод: TSSTcorpCDDVDW SH-222BB Adapter: 3 ID: 0

Режим чтения : Достоверность
Использование точного потока : Да
Отключение кэша аудио : Да
Использование указателей C2 : Нет

Коррекция смещения при чтении : 6
Способность читать области Lead-in и Lead-out : Нет
Заполнение пропущенных сэмплов тишиной : Да
Удаление блоков с тишиной в начале и конце : Нет
При вычислениях CRC использовались нулевые сэмплы : Да
Интерфейс : Установленный внешний ASPI-интерфейс
Обработка зазоров
: Добавлено к предыдущему треку

Выходной формат : Пользовательский кодировщик
Выбранный битрейт : 128 kBit/s
Качество : Высокий
Добавление ID3-тега : Нет
Утилита сжатия : C:\Program Files\Exact Audio Copy\FLAC\FLAC.EXE
Дополнительные параметры : -V -8 -T "Genre=%genre%" -T "Artist=%artist%" -T "Title=%title%" -T "Album=%albumtitle%" -T "Date=%year%" -T "Tracknumber=%tracknr%" -T "Comment=%comment%" %source%

TOC извлечённого CD Трек | Старт | Длительность | Начальный сектор | Конечный сектор

1 | 0:00.00 | 3:01.53 | 0 | 13627
2 | 3:01.53 | 5:09.45 | 13628 | 36847
3 | 8:11.23 | 4:49.04 | 36848 | 58526
4 | 13:00.27 | 3:47.55 | 58527 | 75606
5 | 16:48.07 | 4:13.16 | 75607 | 94597
6 | 21:01.23 | 5:22.21 | 94598 | 118768
7 | 26:23.44 | 5:12.32 | 118769 | 142200
8 | 31:36.01 | 4:42.40 | 142201 | 163390
9 | 36:18.41 | 4:40.43 | 163391 | 184433
10 | 40:59.09 | 3:51.71 | 184434 | 201829
11 | 44:51.05 | 3:49.05 | 201830 | 219009
12 | 48:40.10 | 3:35.45 | 219010 | 235179
13 | 52:15.55 | 3:41.31 | 235180 | 251785
14 | 55:57.11 | 2:58.28 | 251786 | 265163
15 | 58:55.39 | 4:03.25 | 265164 | 283413
16 | 62:58.64 | 4:09.59 | 283414 | 302147
17 | 67:08.48 | 4:07.22 | 302148 | 320694
18 | 71:15.70 | 3:12.21 | 320695 | 335115
19 | 74:28.16 | 3:23.25 | 335116 | 350365

Трек 1 Имя файла I:\MOI_RAZDACI\Music Of The Millennium\VA_Music.Of.The.Millennium_2000\CD-2\01. John Lennon - Imagine.wav Длина предзазора 0:00:02.00 Пиковый уровень 99.6 %
Скорость извлечения 4.6 X
Качество трека 100.0 %
CRC теста 69AFA82D
CRC копии 69AFA82D
Точное извлечение (достоверность 9) [147EA4AE] (AR v2)
Копирование... OK

Трек 2 Имя файла I:\MOI_RAZDACI\Music Of The Millennium\VA_Music.Of.The.Millennium_2000\CD-2\02. Paul McCartney & Wings - Band On The Run.wav Длина предзазора 0:00:00.26 Пиковый уровень 94.7 %
Скорость извлечения 5.4 X
Качество трека 100.0 %
CRC теста 19D0E92F
CRC копии 19D0E92F
Точное извлечение (достоверность 9) [306B0F19] (AR v2)
Копирование... OK

Трек 3 Имя файла I:\MOI_RAZDACI\Music Of The Millennium\VA_Music.Of.The.Millennium_2000\CD-2\03. Simon & Garfunkel - Bridge Over Troubled Water.wav Длина предзазора 0:00:00.25 Пиковый уровень 82.9 %
Скорость извлечения 5.8 X
Качество трека 100.0 %
CRC теста 6F89788D
CRC копии 6F89788D
Точное извлечение (достоверность 9) [ACEDA1E0] (AR v2)
Копирование... OK

Трек 4 Имя файла I:\MOI_RAZDACI\Music Of The Millennium\VA_Music.Of.The.Millennium_2000\CD-2\04. Elton John - Candle In The Wind.wav Длина предзазора 0:00:00.25 Пиковый уровень 90.4 %
Скорость извлечения 4.8 X
Качество трека 99.9 %
CRC теста 7866FC48
CRC копии 7866FC48
Точное извлечение (достоверность 9) [6A19374C] (AR v2)
Копирование... OK

Трек 5 Имя файла I:\MOI_RAZDACI\Music Of The Millennium\VA_Music.Of.The.Millennium_2000\CD-2\05. George Michael - Jesus To A Child.wav Длина предзазора 0:00:00.25 Пиковый уровень 83.7 %
Скорость извлечения 6.4 X
Качество трека 100.0 %
CRC теста 49939361
CRC копии 49939361
Точное извлечение (достоверность 9) [F9A9E775] (AR v2)
Копирование... OK

Трек 6 Имя файла I:\MOI_RAZDACI\Music Of The Millennium\VA_Music.Of.The.Millennium_2000\CD-2\06. Phil Collins - In The Air Tonight.wav Длина предзазора 0:00:00.12 Пиковый уровень 87.9 %
Скорость извлечения 7.0 X
Качество трека 100.0 %
CRC теста C474430C
CRC копии C474430C
Точное извлечение (достоверность 9) [57A4DF34] (AR v2)
Копирование... OK

Трек 7 Имя файла I:\MOI_RAZDACI\Music Of The Millennium\VA_Music.Of.The.Millennium_2000\CD-2\07. Rod Steward - Maggie May.wav Длина предзазора 0:00:00.25 Пиковый уровень 82.5 %
Скорость извлечения 6.2 X
Качество трека 99.9 %
CRC теста DEEA1FAA
CRC копии DEEA1FAA
Точное извлечение (достоверность 9) [F5D73B93] (AR v2)
Копирование... OK

Трек 8 Имя файла I:\MOI_RAZDACI\Music Of The Millennium\VA_Music.Of.The.Millennium_2000\CD-2\08. Roxy Music - Jealous Guy.wav Длина предзазора 0:00:00.25 Пиковый уровень 100.0 %
Скорость извлечения 6.2 X
Качество трека 99.9 %
CRC теста 133A02AD
CRC копии 133A02AD
Точное извлечение (достоверность 9) [9DCD4501] (AR v2)
Копирование... OK

Трек 9 Имя файла I:\MOI_RAZDACI\Music Of The Millennium\VA_Music.Of.The.Millennium_2000\CD-2\09. Bee Gees - Stayin' Alive.wav Длина предзазора 0:00:00.25 Пиковый уровень 100.0 %
Скорость извлечения 7.8 X
Качество трека 100.0 %
CRC теста EA7B03C3
CRC копии EA7B03C3
Точное извлечение (достоверность 9) [059646BF] (AR v2)
Копирование... OK

Трек 10 Имя файла I:\MOI_RAZDACI\Music Of The Millennium\VA_Music.Of.The.Millennium_2000\CD-2\10. Pet Shop Boys - West End Girls.wav Длина предзазора 0:00:00.26 Пиковый уровень 92.1 %
Скорость извлечения 8.0 X
Качество трека 100.0 %
CRC теста 8E359A54
CRC копии 8E359A54
Точное извлечение (достоверность 9) [6BEBBFC7] (AR v2)
Копирование... OK

Трек 11 Имя файла I:\MOI_RAZDACI\Music Of The Millennium\VA_Music.Of.The.Millennium_2000\CD-2\11. ABBA - Dancing Queen.wav Длина предзазора 0:00:00.25 Пиковый уровень 84.2 %
Скорость извлечения 6.4 X
Качество трека 99.9 %
CRC теста 684C63AD
CRC копии 684C63AD
Точное извлечение (достоверность 9) [6A89FE16] (AR v2)
Копирование... OK

Трек 12 Имя файла I:\MOI_RAZDACI\Music Of The Millennium\VA_Music.Of.The.Millennium_2000\CD-2\12. Beach Boys - Good Vibrations.wav Длина предзазора 0:00:00.26 Пиковый уровень 100.0 %
Скорость извлечения 8.3 X
Качество трека 100.0 %
CRC теста 94C1CD91
CRC копии 94C1CD91
Точное извлечение (достоверность 9) [CCA3D5E9] (AR v2)
Копирование... OK

Трек 13 Имя файла I:\MOI_RAZDACI\Music Of The Millennium\VA_Music.Of.The.Millennium_2000\CD-2\13. Diana Ross - Upside Down.wav Длина предзазора 0:00:00.25 Пиковый уровень 95.5 %
Скорость извлечения 6.6 X
Качество трека 99.9 %
CRC теста 50C4B1EB
CRC копии 50C4B1EB
Точное извлечение (достоверность 9) [2E10B6DC] (AR v2)
Копирование... OK

Трек 14 Имя файла I:\MOI_RAZDACI\Music Of The Millennium\VA_Music.Of.The.Millennium_2000\CD-2\14. UB40 - Red Red Wine.wav Длина предзазора 0:00:00.25 Пиковый уровень 81.0 %
Скорость извлечения 8.3 X
Качество трека 100.0 %
CRC теста B55ED5B6
CRC копии B55ED5B6
Точное извлечение (достоверность 10) [EAB97843] (AR v2)
Копирование... OK

Трек 15 Имя файла I:\MOI_RAZDACI\Music Of The Millennium\VA_Music.Of.The.Millennium_2000\CD-2\15. Bob Marley - No Woman No Cry.wav Длина предзазора 0:00:00.25 Пиковый уровень 75.5 %
Скорость извлечения 7.1 X
Качество трека 99.9 %
CRC теста 96186C8D
CRC копии 96186C8D
Точное извлечение (достоверность 9) [04297828] (AR v2)
Копирование... OK

Трек 16 Имя файла I:\MOI_RAZDACI\Music Of The Millennium\VA_Music.Of.The.Millennium_2000\CD-2\16. Michael Jackson - Ain't No Sunshine.wav Длина предзазора 0:00:00.25 Пиковый уровень 100.0 %
Скорость извлечения 9.3 X
Качество трека 100.0 %
CRC теста 292F5645
CRC копии 292F5645
Точное извлечение (достоверность 9) [F15C1A24] (AR v2)
Копирование... OK

Трек 17 Имя файла I:\MOI_RAZDACI\Music Of The Millennium\VA_Music.Of.The.Millennium_2000\CD-2\17. Janet Jackson - Together Again.wav Длина предзазора 0:00:00.25 Пиковый уровень 86.0 %
Скорость извлечения 7.5 X
Качество трека 99.9 %
CRC теста 9EF0C97A
CRC копии 9EF0C97A
Точное извлечение (достоверность 9) [C647A88E] (AR v2)
Копирование... OK

Трек 18 Имя файла I:\MOI_RAZDACI\Music Of The Millennium\VA_Music.Of.The.Millennium_2000\CD-2\18. Marvin Gaye - I Heard It Through The Grapevine.wav Длина предзазора 0:00:00.21 Пиковый уровень 96.0 %
Скорость извлечения 9.2 X
Качество трека 100.0 %
CRC теста 8D0BA72C
CRC копии 8D0BA72C
Точное извлечение (достоверность 9) [120E199B] (AR v2)
Копирование... OK

Трек 19 Имя файла I:\MOI_RAZDACI\Music Of The Millennium\VA_Music.Of.The.Millennium_2000\CD-2\19. Barry White - You're The First The Last My Everything.wav Длина предзазора 0:00:00.25 Пиковый уровень 93.0 %
Скорость извлечения 9.3 X
Качество трека 100.0 %
CRC теста 75B7C120
CRC копии 75B7C120
Точное извлечение (достоверность 9) [A10C0AA1] (AR v2)
Копирование... OK

Все треки извлечены точно

Ошибок не произошло

Конец отчёта

==== Контрольная сумма отчёта 1EBC4B35E43BEE7EF19BE7ACBF2C87F09EBA6235592CFD8543754710988BE41F ====

foobar2000 1.2 / Dynamic Range Meter 1.1.1
log date: 2015-09-21 18:40:06

Analyzed: ABBA / Music Of The Millennium / Doppel-CD (CD 2/2) (1) Barry White / Music Of The Millennium / Doppel-CD (CD 2/2) (2) Beach Boys / Music Of The Millennium / Doppel-CD (CD 2/2) (3) Bee Gees / Music Of The Millennium / Doppel-CD (CD 2/2) (4) Bob Marley / Music Of The Millennium / Doppel-CD (CD 2/2) (5) Diana Ross / Music Of The Millennium / Doppel-CD (CD 2/2) (6) Elton John / Music Of The Millennium / Doppel-CD (CD 2/2) (7) George Michael / Music Of The Millennium / Doppel-CD (CD 2/2) (8) Janet Jackson / Music Of The Millennium / Doppel-CD (CD 2/2) (9) John Lennon / Music Of The Millennium / Doppel-CD (CD 2/2) (10) Marvin Gaye / Music Of The Millennium / Doppel-CD (CD 2/2) (11) Michael Jackson / Music Of The Millennium / Doppel-CD (CD 2/2) (12) Paul McCartney & Wings / Music Of The Millennium / Doppel-CD (CD 2/2) (13) Pet Shop Boys / Music Of The Millennium / Doppel-CD (CD 2/2) (14) Phil Collins / Music Of The Millennium / Doppel-CD (CD 2/2) (15) Rod Steward / Music Of The Millennium / Doppel-CD (CD 2/2) (16) Roxy Music / Music Of The Millennium / Doppel-CD (CD 2/2) (17) Simon & Garfunkel / Music Of The Millennium / Doppel-CD (CD 2/2) (18) UB40 / Music Of The Millennium / Doppel-CD (CD 2/2) (19)

DR Peak RMS Duration Track

DR9 -1.49 dB -12.24 dB 3:49 11-Dancing Queen
DR10 -0.63 dB -12.47 dB 3:23 19-You're The First The Last My Everything
DR13 0.00 dB -15.11 dB 3:36 12-Good Vibrations
DR13 0.00 dB -14.20 dB 4:41 09-Stayin' Alive
DR10 -2.44 dB -14.74 dB 4:03 15-No Woman No Cry
DR12 -0.40 dB -15.37 dB 3:41 13-Upside Down
DR9 -0.87 dB -12.19 dB 3:48 04-Candle In The Wind
DR11 -1.54 dB -14.71 dB 4:13 05-Jesus To A Child
DR11 -1.30 dB -14.17 dB 4:07 17-Together Again
DR11 -0.03 dB -13.55 dB 3:02 01-Imagine
DR12 -0.35 dB -14.74 dB 3:12 18-I Heard It Through The Grapevine
DR12 0.00 dB -14.52 dB 4:10 16-Ain't No Sunshine
DR11 -0.47 dB -13.28 dB 5:10 02-Band On The Run
DR11 -0.71 dB -13.10 dB 3:52 10-West End Girls
DR14 -1.11 dB -20.54 dB 5:22 06-In The Air Tonight
DR10 -1.66 dB -12.99 dB 5:12 07-Maggie May
DR14 0.00 dB -16.52 dB 4:43 08-Jealous Guy
DR10 -1.63 dB -16.53 dB 4:49 03-Bridge Over Troubled Water
DR9 -1.83 dB -12.14 dB 2:58 14-Red Red Wine

Number of tracks: 19
Official DR value: DR11

Samplerate: 44100 Hz
Channels: 2
Bits per sample: 16
Bitrate: 897 kbps
Codec: FLAC

VA - Music Of The Millennium (2000) 2CD

VA - Music Of The Millennium (2000) 2CD

All thanks to original releaser - stas64
Password: designol

DOWNLOAD LINKS:
Buy Premium To Support Me & Get Resumable Support & Max Speed


Links are Interchangeable - No Password - Single Extraction
Direct Download


Tags: Millennium

VA - Music Of The Millennium (2000) 2CD Fast Download via Rapidshare Hotfile Fileserve Filesonic Megaupload, VA - Music Of The Millennium (2000) 2CD Torrents and Emule Download or anything related.
Dear visitor, you went to website as unregistered user.
We encourage you to Register or Login to website under your name.
Information
Members of Guest cannot leave comments.