VAK - Aedividea (2015)

Category: Music | Comment: 0

Download Now

VAK - Aedividea (2015)

VAK - Aedividea (2015)
EAC Rip | FLAC (Img) + Cue + Log ~ 380 Mb | MP3 CBR320 ~ 141 Mb
Scans (PNG, 600 dpi) ~ 120 Mb | RAR 5% Recovery
Progressive Rock, Zeuhl, Experimental | Soleil Zeuhl #49

"The band from Paris combines zeuhl and a pinch of jazz-rock with 70's progressive rock. Guitar, keyboards, bass, drums, vocals and flute act predominantly in a zeuhl robe. Even if it's often built on complex rhythmic structures, the music always stays melodic without getting imprecise. The concept is that every track lives from a mixture of a certain lightness or even happiness getting regularly replaced by more intensive dramatic passages. Undoubtedly Magma and Eskaton are the biggest influences. But the typical rumbling bass sound is omitted here. The female singing lacks the emotional intensity of the aforementioned bands, instead it lifts the compositions with beautiful melodies into dreamy regions. This works best in duet with the flute..."

VAK - Aedividea (2015)

Discogs
***************

VAK - Aedividea (2015)

Track List:

01. Ijkl [07:05]
02. Aedividea [14:02]
03. Alzh [11:06]
04. Zeom [09:50]
05. Ellien [06:23]
06. Periscopy [10:18]

Exact Audio Copy V1.0 beta 6 from 9. April 2015

EAC extraction logfile from 21. September 2015, 17:34

VAK / Aedividea

Used drive : TSSTcorpCDDVDW SH-S223C Adapter: 1 ID: 0

Read mode : Secure
Utilize accurate stream : Yes
Defeat audio cache : Yes
Make use of C2 pointers : No

Read offset correction

: 697
Overread into Lead-In and Lead-Out : No
Fill up missing offset samples with silence : Yes
Delete leading and trailing silent blocks : No
Null samples used in CRC calculations : Yes
Used interface
: Native Win32 interface for Win NT & 2000

Used output format : User Defined Encoder
Selected bitrate : 128 kBit/s
Quality : High
Add ID3 tag : No
Command line compressor : C:\Program Files (x86)\Exact Audio Copy\wavpack\wavpack.exe
Additional command line options : -hm -w "Year=%year%" -w "Genre=%genre%" %source% %dest%

TOC of the extracted CD Track | Start | Length | Start sector | End sector
--1 | 0:00.00 | 7:04.18 | 0 | 31817 2 | 7:04.18 | 14:02.00 | 31818 | 94967 3 | 21:06.18 | 11:05.25 | 94968 | 144867 4 | 32:11.43 | 9:49.71 | 144868 | 189113 5 | 42:01.39 | 6:22.62 | 189114 | 217825 6 | 48:24.26 | 10:17.25 | 217826 | 264125

Range status and errors

Selected range Filename D:\_NL+_\_CD\VAK - Aedividea.wav Peak level 97.7 %
Extraction speed 3.4 X
Range quality 100.0 %
Test CRC EEC88501
Copy CRC EEC88501
Copy OK

No errors occurred


AccurateRip summary

Track 1 not present in database
Track 2 not present in database
Track 3 not present in database
Track 4 not present in database
Track 5 not present in database
Track 6 not present in database

None of the tracks are present in the AccurateRip database

End of status report

- CUETools DB Plugin V2.1.6

[CTDB TOCID: JDiYXoRyaSRAYukH57XA2t0OMow-] found
Submit result: JDiYXoRyaSRAYukH57XA2t0OMow- has been confirmed
Track | CTDB Status
1 | (1/1) Accurately ripped
2 | (1/1) Accurately ripped
3 | (1/1) Accurately ripped
4 | (1/1) Accurately ripped
5 | (1/1) Accurately ripped
6 | (1/1) Accurately ripped

==== Log checksum 233EF5043F9910DC3CEB8D9B152F688C9659FB87546BD881E0F2D918A21407F1 ====

foobar2000 1.2.6 / Dynamic Range Meter 1.1.1
log date: 2015-09-24 01:28:20

Analyzed: VAK / Aedividea

DR Peak RMS Duration Track

DR11 -0.20 dB -12.11 dB 7:04 01- Ijkl
DR9 -0.52 dB -11.64 dB 14:02 02-Aedividea
DR12 -0.20 dB -14.67 dB 11:05 03-Alzh
DR10 -0.42 dB -12.20 dB 9:50 04-Zeom
DR12 -0.20 dB -12.73 dB 6:23 05-Ellien
DR8 -0.42 dB -10.04 dB 10:17 06-Periscopy

Number of tracks: 6
Official DR value: DR10

Samplerate: 44100 Hz
Channels: 2
Bits per sample: 16
Bitrate: 861 kbps
Codec: FLAC

[CUETools log; Date: 24.09.2015 1:28:22; Version: 2.1.5]
[CTDB TOCID: JDiYXoRyaSRAYukH57XA2t0OMow-] found.
Track | CTDB Status
1 | (2/2) Accurately ripped
2 | (2/2) Accurately ripped
3 | (2/2) Accurately ripped
4 | (2/2) Accurately ripped
5 | (2/2) Accurately ripped
6 | (2/2) Accurately ripped
[AccurateRip ID: 000e6280-004cbe2d-4c0dc106] disk not present in database.

Track Peak [ CRC32 ] [W/O NULL] [ LOG ]
-- 97,7 [EEC88501] [5AD91CD8] CRC32
01 97,7 [7EE0C85B] 0A53198
02 94,1 [151CC056] [66504B36]
03 97,7 [946CB394] [3E664BA4]
04 95,2 [D4806191] [60A2C2DC]
05 97,7 [A9ECEF82] [3FFD6B1D]
06 95,2 [C1B3AFF4] [3E5F2D17]

VAK - Aedividea (2015)

VAK - Aedividea (2015)


DOWNLOAD LINKS:
Buy Premium To Support Me & Get Resumable Support & Max Speed


Links are Interchangeable - No Password - Single Extraction
Direct Download


Tags: Aedividea

VAK - Aedividea (2015) Fast Download via Rapidshare Hotfile Fileserve Filesonic Megaupload, VAK - Aedividea (2015) Torrents and Emule Download or anything related.
Dear visitor, you went to website as unregistered user.
We encourage you to Register or Login to website under your name.
Information
Members of Guest cannot leave comments.