Bob Seger & The Silver Bullet Band - Like A Rock (1986)

Category: Music | Comment: 0

Download Now

Bob Seger & The Silver Bullet Band - Like A Rock (1986)

Bob Seger & The Silver Bullet Band - Like A Rock (1986)
EAC | Flac(Image) + Cue + Log & MP3 CBR 320Kbps
Capitol, CDP 7 46195 2 | ~ 291 or 126 Mb | Scans Included
Classic Rock

"At times sounding like a poor man's Springsteen, Bob Seger continued to mine the fields he'd plowed so well over previous efforts. There's the send-up of the U.S.A. in "American Storm," and the hard-rockin' "Sometimes," and the heartbreakingly beautiful "Somewhere Tonight." Oh yes, and the song used in those incessant commercials for American pickup trucks, "Like a Rock." A mature effort from a great American talent..."


Tracklist:

01. American Storm (04:18)
02. Like A Rock (05:56)
03. Miami (04:40)
04. The Ring (05:35)
05. Tightrope (Craig Frost, Seger) (04:31)
06. The Aftermath (Craig Frost, Seger) (03:30)
07. Sometimes (03:31)
08. It's You (04:03)
09. Somewhere Tonight (04:25)
10. Fortunate Son (John Fogerty) (03:20)

Musicians:

Silver Bullet Band:
Bob Seger - acoustic guitar, guitar, piano, vocals
Craig Frost - organ, synthesizer, piano, keyboard
Chris Campbell - bass
Alto Reed - baritone saxophone, tenor saxophone

Additional musicians:
Dawayne Bailey - acoustic guitar, guitar, electric guitar on "Like a Rock"
Pete Carr - guitar on "American Storm"
Dann Huff - guitar on "Sometimes"
Fred Tackett - acoustic guitar, guitar on "The Ring" "Sometimes" "Somewhere Tonight"
Rick Vito - acoustic guitar, guitar, electric guitar, slide guitar on "Like a Rock" "Miami" "The Ring" "Tightrope" "The Aftermath" "Somewhere Tonight"
John "J.R." Robinson - drums on all tracks except:
Russ Kunkel - drums on "American Storm" "Like a Rock"
Gary Mallaber - drums on "The Ring"
Paulinho Da Costa - percussion on "Miami" "The Aftermath" "It's You" Keyboards
Bill Payne - synthesizer, piano, keyboard on all tracks except "Tightrope"
David Cole - synthesizer on "It's You"
Gary Grant - trumpet on "Miami"
Gary Herbig - saxophone on "Miami"
Jerry Hey - trumpet on "Miami" "The Aftermath" "Sometimes"
Kim Hutchcroft - saxophone on "Miami" "Sometimes"
Bill Reichenbach Jr. - trombone on "Miami" "The Aftermath" "Sometimes"
Marc Russo - saxophone on "Miami" "The Aftermath" "Sometimes"
Ernie Watts - saxophone on "Miami" "The Aftermath" "Sometimes"
Laura Creamer - background vocals on "Tightrope" "The Aftermath" "It's You" "Somewhere Tonight"
Mark Creamer - background vocals on "Tightrope" "The Aftermath" "It's You"
Donny Gerrard - background vocals on "Tightrope" "The Aftermath" "It's You" "Somewhere Tonight"
Don Henley - background vocals, harmony vocals "Miami"
Shaun Murphy - vocals & background vocals on "Tightrope," background vocals on "The Aftermath" "Somewhere Tonight," harmony vocals on "Sometimes" "It's You"
Timothy B. Schmit - background vocals "Miami"
The Weather Girls (Izora Armstead and Martha Wash) - background vocals on Like a rock, Tightrope and The Aftermath.


Exact Audio Copy V0.99 prebeta 3 from 28. July 2007

EAC extraction logfile from 21. May 2008, 21:41

Bob Seger & The Silver Bullet Band / Like A Rock

Used drive : HL-DT-STDVDRAM GMA-4082N Adapter: 1 ID: 0

Read mode : Secure
Utilize accurate stream : Yes
Defeat audio cache : Yes
Make use of C2 pointers : No

Read offset correction

: 667
Overread into Lead-In and Lead-Out : No
Fill up missing offset samples with silence : Yes
Delete leading and trailing silent blocks : No
Null samples used in CRC calculations : Yes
Used interface
: Installed external ASPI interface

Used output format : Internal WAV Routines
Sample format : 44.100 Hz; 16 Bit; Stereo

TOC of the extracted CD Track | Start | Length | Start sector | End sector
--1 | 0:00.32 | 4:18.25 | 32 | 19406 2 | 4:18.57 | 5:56.58 | 19407 | 46164 3 | 10:15.40 | 4:40.60 | 46165 | 67224 4 | 14:56.25 | 5:35.52 | 67225 | 92401 5 | 20:32.02 | 4:31.35 | 92402 | 112761 6 | 25:03.37 | 3:30.53 | 112762 | 128564 7 | 28:34.15 | 3:31.40 | 128565 | 144429 8 | 32:05.55 | 4:03.37 | 144430 | 162691 9 | 36:09.17 | 4:25.35 | 162692 | 182601
10 | 40:34.52 | 3:20.45 | 182602 | 197646

Range status and errors

Selected range Filename C:\Bob Seger - Like a Rock\Bob Seger & The Silver Bullet Band - Like A Rock.wav Peak level 88.6 %
Range quality 99.9 %
Copy CRC 3C51F624
Copy OK

No errors occurred


AccurateRip summary

Track 1 accurately ripped (confidence 1) [2D0DC19F]
Track 2 accurately ripped (confidence 1) [49AFAC45]
Track 3 accurately ripped (confidence 1) [E65FB9F5]
Track 4 accurately ripped (confidence 1) [58EE4CDE]
Track 5 accurately ripped (confidence 1) [502D35AB]
Track 6 accurately ripped (confidence 1) [6ABC8090]
Track 7 accurately ripped (confidence 1) [DE6FF7AE]
Track 8 accurately ripped (confidence 1) [0E39A2B2]
Track 9 accurately ripped (confidence 1) [1FBEB2F8]
Track 10 accurately ripped (confidence 1) [6F14B2AA]

All tracks accurately ripped

End of status report

foobar2000 1.2.9 / Dynamic Range Meter 1.1.1
log date: 2015-09-27 17:02:03

Analyzed: Bob Seger & The Silver Bullet Band / Like A Rock

DR Peak RMS Duration Track

DR14 -2.30 dB -17.73 dB 4:18 01-American Storm
DR13 -2.94 dB -19.08 dB 5:57 02-Like A Rock
DR14 -1.98 dB -18.42 dB 4:41 03-Miami
DR14 -2.28 dB -20.62 dB 5:36 04-The Ring
DR14 -1.04 dB -17.94 dB 4:31 05-Tightrope
DR13 -1.33 dB -16.79 dB 3:31 06-The Aftermath
DR12 -3.90 dB -17.75 dB 3:32 07-Sometimes
DR15 -2.00 dB -19.74 dB 4:03 08-It's You
DR13 -4.60 dB -23.14 dB 4:25 09-Somewhere Tonight
DR12 -2.39 dB -16.60 dB 3:21 10-Fortunate Son

Number of tracks: 10
Official DR value: DR13

Samplerate: 44100 Hz
Channels: 2
Bits per sample: 16
Bitrate: 829 kbps
Codec: FLAC

CUETools log; Date: 27.09.2015 17:02:41; Version: 2.1.4]
Pregap length 00:00:32.
[CTDB TOCID: Ih2Y02EJv2jSX2QI_6zmIsYZXVQ-] found.
Track | CTDB Status
1 | (3/3) Accurately ripped
2 | (3/3) Accurately ripped
3 | (3/3) Accurately ripped
4 | (3/3) Accurately ripped
5 | (3/3) Accurately ripped
6 | (3/3) Accurately ripped
7 | (3/3) Accurately ripped
8 | (3/3) Accurately ripped
9 | (3/3) Accurately ripped
10 | (3/3) Accurately ripped
[AccurateRip ID: 00119b89-008aecc7-820a4b0a] found.
Track [ CRC | V2 ] Status
01 [2d0dc19f|94266f36] (02+04/11) Accurately ripped
02 [49afac45|09598bf1] (02+04/11) Accurately ripped
03 [e65fb9f5|f7c3675f] (02+04/11) Accurately ripped
04 [58ee4cde|6defdb43] (02+04/11) Accurately ripped
05 [502d35ab|58adc5e3] (02+04/11) Accurately ripped
06 [6abc8090|06076b20] (02+04/11) Accurately ripped
07 [de6ff7ae|f0c95c2f] (02+04/11) Accurately ripped
08 [0e39a2b2|5042395c] (02+04/11) Accurately ripped
09 [1fbeb2f8|6bf177ae] (02+04/11) Accurately ripped
10 [6f14b2aa|e91b0108] (02+04/11) Accurately ripped
Offsetted by -667:
01 [519010ea] (05/11) Accurately ripped
02 [6395fa02] (05/11) Accurately ripped
03 [c9acf438] (05/11) Accurately ripped
04 [0480c161] (05/11) Accurately ripped
05 [a12db15f] (05/11) Accurately ripped
06 [fee98a57] (05/11) Accurately ripped
07 [00789a5d] (05/11) Accurately ripped
08 4dff331 (05/11) Accurately ripped
09 [c3d071cb] (05/11) Accurately ripped
10 [2290573f] (05/11) Accurately ripped

Track Peak [ CRC32 ] [W/O NULL] [ LOG ]
-- 88,6 [3C51F624] [CF58594B] CRC32
01 76,7 [80D08CD1] [54ECF10D]
02 71,2 [98546BC2] [8BC36ADA]
03 79,6 [0F9D5A18] [4AC6B287]
04 76,8 [AD6BCF58] [DEC4C639]
05 88,6 [A2249AEE] [26077D4B]
06 85,7 [76149F5A] [28A6D46A]
07 63,8 [2A21C0EC] [55052947]
08 79,4 [0CB00ED7] [7B1C59E7]
09 58,9 [EC438B57] 159CE72
10 75,9 [FF1D8BC6] [2F182AEA]

Bob Seger & The Silver Bullet Band - Like A Rock (1986)

All thanks go to the original releaser



Download Bob Seger & The Silver Bullet Band - Like A Rock (1986):

DOWNLOAD LINKS:
Buy Premium To Support Me & Get Resumable Support & Max Speed


Links are Interchangeable - No Password - Single Extraction
Direct Download


Tags: Silver, Bullet

Bob Seger & The Silver Bullet Band - Like A Rock (1986) Fast Download via Rapidshare Hotfile Fileserve Filesonic Megaupload, Bob Seger & The Silver Bullet Band - Like A Rock (1986) Torrents and Emule Download or anything related.
Dear visitor, you went to website as unregistered user.
We encourage you to Register or Login to website under your name.
Information
Members of Guest cannot leave comments.