The Hollies - Hollies (1974) [2008, Remastered] 15.10.02

Category: Music | Comment: 0

Download Now

The Hollies - Hollies (1974) [2008, Remastered] 15.10.02

The Hollies - Hollies (1974) [2008, Remastered] 15.10.02
The Hollies - Hollies (1974/2008)
EAC Rip | FLAC (Img) + Cue + Log ~ 424 Mb | MP3 CBR320 ~ 153 Mb
Scans Included (JPG, 300 dpi) | RAR 5% Recovery
Rock, Pop Rock | EMI #50999 5 22237 2 3

"The 2008 EMI reissue restores the original U.K. album song lineup (with "The Air That I Breathe" as the last track), which is an improvement right there, and it augments the album with five bonus tracks from the same sessions that either went unreleased at the time or ended up elsewhere (i.e., single B-sides, etc.). And the irony is that those five songs are mostly significantly better than much of the material that ended up on the album -- "Mexico Gold" and "Tip of the Iceberg" are fiercely stylized tracks with good hooks and memorable choruses that stand out as straight-ahead rockers, which is more of what the group needed (and fewer ballads), and the previously unissued "Burn Fire Burn" (composed by drummer Bobby Elliott), presented here with a fresh mix, is at least as good a track as anything that did make it onto the original LP..."
Wiki | Discogs | All Music
The Hollies - Hollies (1974) [2008, Remastered] 15.10.02
Track List:
01. Falling Calling [03:17]
02. Down On The Run [03:54]
03. Don't Let Me Down [04:22]
04. Love Makes The World Go 'Round [03:48]
05. The Day That Curly Billy Shot Down Crazy Sam McGee [04:28]
06. It's A Shame, It's A Game [03:45]
07. Rubber Lucy [04:16]
08. Pick Up The Pieces Again [04:01]
09. Transatlantic Westbound Jet [03:18]
10. Out On The Road [02:58]
11. The Air That I Breathe [04:18]
Bonus Tracks:
12. Mexico Gold [03:58]
13. Tip Of Iceberg [04:10]
14. Burn Fire Burn (previous unissued) [03:11]
15. Born A Man [02:59]
16. No More Riders [02:58]
Exact Audio Copy V0.99 prebeta 4 from 23. January 2008
EAC extraction logfile from 18. May 2009, 22:53
The Hollies - Hollies[1974]
Used drive : Optiarc DVD RW AD-7173A Adapter: 3 ID: 0
Read mode : Secure
Utilize accurate stream : Yes
Defeat audio cache : Yes
Make use of C2 pointers : No
Read offset correction
: 48
Overread into Lead-In and Lead-Out : No
Fill up missing offset samples with silence : Yes
Delete leading and trailing silent blocks : No
Null samples used in CRC calculations : Yes
Used interface
: Native Win32 interface for Win NT & 2000
Used output format : Internal WAV Routines
Sample format : 44.100 Hz; 16 Bit; Stereo
TOC of the extracted CD Track | Start | Length | Start sector | End sector
--1 | 0:00.00 | 3:16.74 | 0 | 14773 2 | 3:16.74 | 3:53.44 | 14774 | 32292 3 | 7:10.43 | 4:21.74 | 32293 | 51941 4 | 11:32.42 | 3:47.54 | 51942 | 69020 5 | 15:20.21 | 4:27.37 | 69021 | 89082 6 | 19:47.58 | 3:44.55 | 89083 | 105937 7 | 23:32.38 | 4:15.44 | 105938 | 125106 8 | 27:48.07 | 4:00.16 | 125107 | 143122 9 | 31:48.23 | 3:17.62 | 143123 | 157959
10 | 35:06.10 | 2:57.52 | 157960 | 171286
11 | 38:03.62 | 4:17.08 | 171287 | 190569
12 | 42:20.70 | 3:57.03 | 190570 | 208347
13 | 46:17.73 | 4:09.53 | 208348 | 227075
14 | 50:27.51 | 3:10.48 | 227076 | 241373
15 | 53:38.24 | 2:58.44 | 241374 | 254767
16 | 56:36.68 | 2:57.10 | 254768 | 268052
Range status and errors
Selected range Filename C:\Documents and Settings\????\??????? ????\????? ????? 1\The Hollies - Hollies[1974]\The Hollies - Hollies[1974].wav Peak level 99.2 %
Range quality 100.0 %
Copy CRC 9B747FA9
Copy OK
No errors occurred
AccurateRip summary
Track 1 not present in database
Track 2 not present in database
Track 3 not present in database
Track 4 not present in database
Track 5 not present in database
Track 6 not present in database
Track 7 not present in database
Track 8 not present in database
Track 9 not present in database
Track 10 not present in database
Track 11 not present in database
Track 12 not present in database
Track 13 not present in database
Track 14 not present in database
Track 15 not present in database
Track 16 not present in database
None of the tracks are present in the AccurateRip database
End of status report
foobar2000 1.2.6 / Dynamic Range Meter 1.1.1
log date: 2015-08-08 08:42:46
Analyzed: Hollies / Hollies
DR Peak RMS Duration Track
DR10 -0.07 dB -12.87 dB 3:17 01-Falling Calling
DR9 -0.11 dB -11.17 dB 3:54 02-Down On The Run
DR10 -0.07 dB -12.43 dB 4:22 03-Don't Let Me Down
DR10 -0.07 dB -13.38 dB 3:48 04-Love Makes The World Go 'Round
DR8 -0.13 dB -10.68 dB 4:27 05-The Day That Curly Billy Shot Down Crazy Sam McGee
DR10 -0.08 dB -11.60 dB 3:45 06-It's A Shame, It's A Game
DR9 -0.12 dB -10.34 dB 4:16 07-Rubber Lucy
DR9 -0.36 dB -12.25 dB 4:00 08-Pick Up The Pieces Again
DR9 -0.24 dB -11.72 dB 3:18 09-Transatlantic Westbound Jet
DR9 -0.15 dB -12.12 dB 2:58 10-Out On The Road
DR9 -0.12 dB -11.32 dB 4:17 11-The Air That I Breathe
DR8 -0.29 dB -12.00 dB 3:57 12-Mexico Gold
DR10 -0.07 dB -11.66 dB 4:10 13-Tip Of Iceberg
DR8 -0.07 dB -11.12 dB 3:11 14-Burn Fire Burn (previous unissued)
DR9 -0.11 dB -11.74 dB 2:59 15-Born A Man
DR10 -0.07 dB -11.19 dB 2:57 16-No More Riders
Number of tracks: 16
Official DR value: DR9
Samplerate: 44100 Hz
Channels: 2
Bits per sample: 16
Bitrate: 924 kbps
Codec: FLAC
[CUETools log; Date: 08.08.2015 8:42:32; Version: 2.1.5]
[CTDB TOCID: 1964AReFvCgmPeLxpjoeuIMaENs-] found.
Track | CTDB Status
1 | (4/4) Accurately ripped
2 | (4/4) Accurately ripped
3 | (4/4) Accurately ripped
4 | (4/4) Accurately ripped
5 | (4/4) Accurately ripped
6 | (4/4) Accurately ripped
7 | (4/4) Accurately ripped
8 | (4/4) Accurately ripped
9 | (4/4) Accurately ripped
10 | (4/4) Accurately ripped
11 | (4/4) Accurately ripped
12 | (4/4) Accurately ripped
13 | (4/4) Accurately ripped
14 | (4/4) Accurately ripped
15 | (4/4) Accurately ripped
16 | (4/4) Accurately ripped
[AccurateRip ID: 0023de7d-01ad5378-e10df610] found.
Track [ CRC | V2 ] Status
01 [15346afb|19834595] (0+0/3) No match
02 [c1ddad6b|62431d52] (0+0/3) No match
03 [97c19374|80ec7395] (0+0/3) No match
04 [3dc83499|43719af1] (0+0/3) No match
05 [7ac7ca88|6a8fb810] (0+0/3) No match
06 [f01f8d30|467003ca] (0+0/3) No match
07 [8019c2c7|5e693c60] (0+0/3) No match
08 [2c0ff94b|f5f1df7b] (0+0/3) No match
09 [a2383afc|218105ae] (0+0/3) No match
10 [c7bd47db|7c594fda] (0+0/3) No match
11 [35591ba2|c59e03a5] (0+0/3) No match
12 [55a4a12b|520751cf] (0+0/3) No match
13 [1d1b3ad3|6326c641] (0+0/3) No match
14 [829ed770|46f739fd] (0+0/3) No match
15 [68d33a1d|6041825c] (0+0/3) No match
16 [1efa75d1|c3427af4] (0+0/3) No match
Offsetted by 664:
01 [cec9910a] (0/3) No match (V2 was not tested)
02 [eb555a4a] (0/3) No match (V2 was not tested)
03 [ac3d30da] (0/3) No match (V2 was not tested)
04 [7ebe5bbb] (0/3) No match (V2 was not tested)
05 [5c3b1d4c] (0/3) No match (V2 was not tested)
06 [efc92324] (0/3) No match (V2 was not tested)
07 [c0a61a99] (0/3) No match (V2 was not tested)
08 [3585cce4] (0/3) No match (V2 was not tested)
09 [a813e513] (0/3) No match (V2 was not tested)
10 [635fa793] (0/3) No match (V2 was not tested)
11 85c91a4 (0/3) No match (V2 was not tested)
12 [a2e08bb8] (0/3) No match (V2 was not tested)
13 [453156c3] (0/3) No match (V2 was not tested)
14 [e6ecea5f] (0/3) No match (V2 was not tested)
15 [d537b37b] (0/3) No match (V2 was not tested)
16 [1e5c8399] (0/3) No match (V2 was not tested)
Track Peak [ CRC32 ] [W/O NULL] [ LOG ]
-- 99,2 [9B747FA9] [C450C18C] CRC32
01 99,1 [6C8480A1] [42D486E0]
02 98,7 [68A20423] [51614E33]
03 99,1 [8E83321B] [4D8E8181]
04 99,2 [CA5C711B] [868DD580]
05 98,4 [2F3E65B9] [A271531A]
06 99,0 [D9B4AD69] [C656334C]
07 98,6 [46E04C6F] [EA61F1BD]
08 95,9 0B27A43 [0EEDF3DF]
09 97,3 [E5466CB0] [C1E6BFEE]
10 98,2 [CCAD9BEE] [50C4E2B5]
11 98,6 [EA47C4B9] [6318E1CD]
12 96,7 [842D6E74] [E2846F21]
13 99,1 DF27716 [DF1C7A29]
14 99,2 [EDAB13B3] [4F9DF616]
15 98,7 [E581EFED] [1ABFDE55]
16 99,2 [5A10789E] 8BE7DF4
The Hollies - Hollies (1974) [2008, Remastered] 15.10.02
Buy a premium to download file with fast speed
Rapidgator.net
thanks
http://rapidgator.net/file/b836e210fec03c85a990990821b2ca84/fo0hu.ThHlls74.part1.rar.html
http://rapidgator.net/file/6269935ce8690cea1eb8473f6db9dae3/fo0hu.ThHlls74.part2.rar.html
http://rapidgator.net/file/415d4d14e2eef2ce5b589cc00d78262d/fo0hu.ThHlls74mp3.rar.html
http://rapidgator.net/file/2f68a89871337d17533810fb318c95d6/fo0hu.ThHlls74mp3.rar.html
Direct Download


Tags: Hollies, Hollies, Remastered

The Hollies - Hollies (1974) [2008, Remastered] 15.10.02 Fast Download via Rapidshare Hotfile Fileserve Filesonic Megaupload, The Hollies - Hollies (1974) [2008, Remastered] 15.10.02 Torrents and Emule Download or anything related.
Dear visitor, you went to website as unregistered user.
We encourage you to Register or Login to website under your name.
Information
Members of Guest cannot leave comments.