Accept - Metal Heart (1985) (1989, RCA, ND 74207)

Category: Music | Comment: 0

Download Now

Accept - Metal Heart (1985) (1989, RCA, ND 74207)

Accept - Metal Heart (1985)
EAC Rip | FLAC, IMG+CUE+LOG | 320 MB | MP3 CBR 320 Kbps | 110 MB | Complete HQ Scans | PNG -> 35 MB
Heavy Metal | Label: RCA/BMG Ariola Hamburg GmbH #ND 74207 | RAR 3% Rec. | Nitroflare.com
... Non-Remastered Europe 1st Press CD, DR=12 ...

"With 1985's Metal Heart, German metal institution Accept attempted to add catchier choruses and melodies to their high-octane guitar riffing in a clear ploy to crack the American market. Not that this move in any way upset the balance of their thus-far smooth-running metal machine, which had been gaining momentum with every release since the start of the decade. No, Metal Heart was certainly a step toward accessibility, but a cautious one at that -- and, frankly, there was no toning down when it came to the lacerated larynx of gifted lead screamer Udo Dirkschneider. You gotta hand it to Accept, they sure knew how to make an entrance by now, and the apocalyptic title track is about as dramatic as it gets (the operatic "Bound to Fail" comes close), with guitarist Wolf Hoffman taking the helm on a long, mid-song solo excursion containing equal nods to Beethoven (very nice) and Edward Van Halen (get real). First single "Midnight Mover" is next, and along with the even more melodic "Screaming for a Love-Bite," it places obvious emphasis on hooks and melodies (and proved to be the toughest to stomach for the band's more hardcore fans). But despite another strange detour into jazz territory with the bizarre "Teach Us to Survive," Accept still packed amazing power, heaping on their Teutonic background vocals for the ultraheavy "Dogs on Leads" and gleefully pile-driving their way through relentless moshers like "Up to the Limit" and "Wrong Is Right." The brilliantly over-the-top "Too High to Get It Right" finds Dirkschneider screeching like never before, and to cap things off, the band really cooks on "Living for Tonight" -- arguably the best track all around. A winning set.

~ by Eduardo Rivadavia, allmusic.com
"

Tracklist :

1. Metal Heart - 5:24
2. Midnight Mover - 3:07
3. Up To The Limit - 3:47
4. Wrong Is Right - 3:09
5. Screaming For A Love-Bite - 4:04
6. Too High To Get It Right - 3:47
7. Dogs On Leads - 4:24
8. Teach Us To Survive - 3:33
9. Living For Tonite - 3:34
10. Bound To Fail - 5:06

Exact Audio Copy V1.0 beta 3 from 29. August 2011

EAC extraction logfile from 28. August 2013, 20:25

Accept / Metal Heart (1989, ND 74207)

Used drive : PIONEER DVD-RW DVR-219L Adapter: 1 ID: 0

Read mode : Secure
Utilize accurate stream : Yes
Defeat audio cache : Yes
Make use of C2 pointers : No

Read offset correction

: 6
Overread into Lead-In and Lead-Out : No
Fill up missing offset samples with silence : Yes
Delete leading and trailing silent blocks : No
Null samples used in CRC calculations : Yes
Used interface
: Installed external ASPI interface

Used output format : Internal WAV Routines
Sample format : 44.100 Hz; 16 Bit; Stereo

TOC of the extracted CD Track | Start | Length | Start sector | End sector
--1 | 0:00.33 | 5:24.27 | 33 | 24359 2 | 5:24.60 | 3:06.43 | 24360 | 38352 3 | 8:31.28 | 3:47.37 | 38353 | 55414 4 | 12:18.65 | 3:08.68 | 55415 | 69582 5 | 15:27.58 | 4:04.25 | 69583 | 87907 6 | 19:32.08 | 3:47.00 | 87908 | 104932 7 | 23:19.08 | 4:24.12 | 104933 | 124744 8 | 27:43.20 | 3:33.15 | 124745 | 140734 9 | 31:16.35 | 3:34.05 | 140735 | 156789
10 | 34:50.40 | 5:05.68 | 156790 | 179732

Range status and errors

Selected range Filename D:\.www.AvaxHome.ru\Accept - Metal Heart (1989, ND 74207).wav Peak level 100.0 %
Extraction speed 6.6 X
Range quality 100.0 %
Test CRC F7EC9BFA
Copy CRC F7EC9BFA
Copy OK

No errors occurred


AccurateRip summary

Track 1 accurately ripped (confidence 4) [F81FE115] (AR v2)
Track 2 accurately ripped (confidence 4) [11204988] (AR v2)
Track 3 accurately ripped (confidence 4) [6A59EE6A] (AR v2)
Track 4 accurately ripped (confidence 4) [54301903] (AR v2)
Track 5 accurately ripped (confidence 4) [EC70379E] (AR v2)
Track 6 accurately ripped (confidence 4) [888F087E] (AR v2)
Track 7 accurately ripped (confidence 4) [9611EEA5] (AR v2)
Track 8 accurately ripped (confidence 4) [4976B29F] (AR v2)
Track 9 accurately ripped (confidence 4) E76042A (AR v2)
Track 10 accurately ripped (confidence 4) [A5C882A4] (AR v2)

All tracks accurately ripped

End of status report

- CUETools DB Plugin V2.1.4

[CTDB TOCID: .k6219ING.8QDYKYSu4PP1pBOVc-] found
Submit result: .k6219ING.8QDYKYSu4PP1pBOVc- has been confirmed
Track | CTDB Status
1 | (6/7) Accurately ripped, or (1/7) differs in 2787 samples @00:00:69-00:01:32,00:01:50,00:01:68,00:02:28-00:02:34,00:03:30,00:03:50,00:04:55,00:05:28,00:05:50,00:05:64-00:05:69,00:06:01-00:06:05,00:06:17-00:06:22,00:06:29-00:06:36,00:07:16,00:07:21,00:07:48,00:07:57,00:08:00,00:08:07,00:08:18,00:08:52,00:08:57-00:08:58,00:08:64,00:09:06-00:09:09,00:09:30,00:09:61-00:09:65,00:10:53,00:11:66-00:11:70,00:12:40,00:12:57,00:13:08,00:13:22,00:13:28,00:13:63,00:14:17,00:15:71-00:15:72,00:16:11,00:16:16-00:16:17,00:16:43,00:17:62,00:18:35,00:18:60,00:19:07,00:20:59,00:21:04,00:21:09-00:21:10,00:22:05,00:22:51-00:22:57,00:23:40,00:24:03,00:24:17-00:24:21,00:24:59,00:25:72,00:29:18,00:30:49-00:30:54,00:30:61,00:31:12,00:32:59,00:33:17,00:33:23,00:33:31,00:33:56,00:34:59,00:34:68,00:35:24,00:35:31,00:36:31,00:36:65,00:37:15-00:37:18,00:37:38,00:37:48,00:43:51,00:44:04,00:45:53,00:46:07,00:47:23,00:47:74,00:58:55,00:58:65,00:59:69,01:15:04,01:16:31,01:18:23,01:18:39-01:18:40,01:22:33,01:25:32,01:25:70,01:26:42,01:30:47,01:30:56,01:31:65,01:40:12,01:48:33,01:56:36,02:00:06,02:03:52,02:04:08,02:04:38,02:05:69,02:09:31,02:19:62-02:19:63,02:21:17,02:49:13,02:49:46,03:11:64,03:18:30,03:21:48,03:30:30,03:31:01,03:48:47-03:48:48,03:54:28,03:54:50-03:54:51,04:01:13,04:05:59,04:11:27-04:11:28,04:11:66,04:13:35,04:14:72,04:15:50,04:20:46,04:22:64-04:22:65,04:28:05,04:45:67,04:53:31,04:57:63,05:10:25
2 | (6/7) Accurately ripped, or (1/7) differs in 66 samples @00:06:30,00:13:22,00:26:70,00:36:73,00:49:11,00:59:18,01:37:05,01:45:25,01:46:00,01:47:39,02:33:17-02:33:18,02:35:04
3 | (6/7) Accurately ripped, or (1/7) differs in 44 samples @00:00:48-00:00:49,00:02:28,00:47:18,00:54:20,01:10:65,01:46:36,02:51:17,03:04:35
4 | (6/7) Accurately ripped, or (1/7) differs in 3 samples @03:04:65
5 | (7/7) Accurately ripped
6 | (6/7) Accurately ripped, or (1/7) differs in 2 samples @01:26:07
7 | (6/7) Accurately ripped, or (1/7) differs in 60 samples @00:00:58,00:24:72,00:43:35,01:15:21-01:15:22,02:25:14,04:01:58
8 | (6/7) Accurately ripped, or (1/7) differs in 4 samples @01:42:41
9 | (6/7) Accurately ripped, or (1/7) differs in 12 samples @00:42:04,01:50:28,02:17:30
10 | (6/7) Accurately ripped, or (1/7) differs in 3 samples @04:56:41

==== Log checksum 2344028E22225E5E490AC2B19C171AAA427E87D1D22A5590656D84A44AE796F2 ====

[CUETools log; Date: 08.10.2015 10:57:08; Version: 2.1.5]
Pregap length 00:00:33.
[CTDB TOCID: .k6219ING.8QDYKYSu4PP1pBOVc-] found.
Track | CTDB Status
1 | (42/44) Accurately ripped, or (1/44) differs in 2787 samples @00:01:36-00:01:74,00:02:16,00:02:35,00:02:70-00:03:01,00:03:72,00:04:17,00:05:22,00:05:70,00:06:16,00:06:31-00:06:36,00:06:42-00:06:47,00:06:58-00:06:64,00:06:71-00:07:03,00:07:58,00:07:63,00:08:15,00:08:24,00:08:42,00:08:49,00:08:60,00:09:19,00:09:24-00:09:25,00:09:31,00:09:48-00:09:50,00:09:72,00:10:28-00:10:32,00:11:20,00:12:32-00:12:37,00:13:06,00:13:24,00:13:50,00:13:64,00:13:70,00:14:29,00:14:58,00:16:38-00:16:39,00:16:53,00:16:58-00:16:59,00:17:10,00:18:29,00:19:01,00:19:27,00:19:49,00:21:26,00:21:46,00:21:51,00:22:47,00:23:18-00:23:24,00:24:06,00:24:44,00:24:59-00:24:63,00:25:26,00:26:39,00:29:59,00:31:16-00:31:20,00:31:28,00:31:54,00:33:26,00:33:59,00:33:65,00:33:73,00:34:23,00:35:26,00:35:35,00:35:66,00:35:73,00:36:73,00:37:31,00:37:57-00:37:60,00:38:05,00:38:15,00:44:17,00:44:46,00:46:20,00:46:49,00:47:65,00:48:41,00:59:22,00:59:32,01:00:36,01:15:46,01:16:72,01:18:65,01:19:06,01:23:00,01:25:73,01:26:37,01:27:08,01:31:13,01:31:23,01:32:31,01:40:53,01:49:00,01:57:03,02:00:47,02:04:19,02:04:50,02:05:05,02:06:36,02:09:72,02:20:29,02:21:59,02:49:55,02:50:13,03:12:31,03:18:71,03:22:15,03:30:72,03:31:43,03:49:14,03:54:70,03:55:17,04:01:55,04:06:26,04:11:69,04:12:33,04:14:02,04:15:39,04:16:16,04:21:12,04:23:31,04:28:46,04:46:34,04:53:73,04:58:30,05:10:67
2 | (42/44) Accurately ripped, or (1/44) differs in 66 samples @00:06:30,00:13:22,00:26:70,00:36:73,00:49:11,00:59:18,01:37:05,01:45:25,01:46:00,01:47:39,02:33:17-02:33:18,02:35:04
3 | (42/44) Accurately ripped, or (1/44) differs in 44 samples @00:00:48-00:00:49,00:02:28,00:47:18,00:54:20,01:10:65,01:46:36,02:51:17,03:04:35
4 | (42/44) Accurately ripped, or (1/44) differs in 3 samples @03:04:65
5 | (43/44) Accurately ripped
6 | (42/44) Accurately ripped, or (1/44) differs in 2 samples @01:26:07
7 | (42/44) Accurately ripped, or (1/44) differs in 60 samples @00:00:58,00:24:72,00:43:35,01:15:21-01:15:22,02:25:14,04:01:58
8 | (42/44) Accurately ripped, or (1/44) differs in 4 samples @01:42:41
9 | (42/44) Accurately ripped, or (1/44) differs in 12 samples @00:42:04,01:50:28,02:17:30
10 | (42/44) Accurately ripped, or (1/44) differs in 3 samples @04:56:41
[AccurateRip ID: 000efe3c-007717e8-7f095c0a] found.
Track [ CRC | V2 ] Status
01 [c805c955|f81fe115] (15+09/96) Accurately ripped
02 [0d33cf4a|11204988] (15+09/95) Accurately ripped
03 [ada524d1|6a59ee6a] (15+09/96) Accurately ripped
04 [d9fb26cb|54301903] (15+09/96) Accurately ripped
05 [e9f17e55|ec70379e] (15+09/96) Accurately ripped
06 [ffd0922e|888f087e] (15+09/95) Accurately ripped
07 [1ae132db|9611eea5] (15+09/95) Accurately ripped
08 [0186ad37|4976b29f] (15+09/95) Accurately ripped
09 [89d51962|be76042a] (15+09/95) Accurately ripped
10 [2ab50bb3|a5c882a4] (15+09/95) Accurately ripped
Offsetted by 669:
01 [7dd221e7] (10/96) Accurately ripped
02 [85b17b3e] (09/95) Accurately ripped
03 [c2bd21fc] (10/96) Accurately ripped
04 [80b8898f] (10/96) Accurately ripped
05 [6682813a] (10/96) Accurately ripped
06 [97d39035] (09/95) Accurately ripped
07 [12866ea8] (09/95) Accurately ripped
08 [fe5e7e96] (09/95) Accurately ripped
09 [cb82b70f] (09/95) Accurately ripped
10 [7be61732] (09/95) Accurately ripped
Offsetted by 1714:
01 [9dcd58ae] (24/96) Accurately ripped
02 [ed40f9b5] (25/95) Accurately ripped
03 [49c2b332] (25/96) Accurately ripped
04 [07d19126] (25/96) Accurately ripped
05 [552e0070] (25/96) Accurately ripped
06 [472444ab] (25/95) Accurately ripped
07 [0d5af002] (25/95) Accurately ripped
08 [fdb497ea] (25/95) Accurately ripped
09 [0d05d6c7] (25/95) Accurately ripped
10 23e359e (25/95) Accurately ripped

Track Peak [ CRC32 ] [W/O NULL] [ LOG ]
-- 100,0 [F7EC9BFA] [540C552B] CRC32
01 76,2 [027281B4] [FA35605D]
02 82,9 [F1AF958B] [A73C1755]
03 84,8 [EA0789D3] [C168D085]
04 80,1 [F538CB50] [9C3E5A0F]
05 87,9 [CF16F4E8] [0083364E]
06 100,0 [11349956] 3CC9AB5
07 87,2 [730BB918] [904B4468]
08 81,2 [D087FE4D] [6A72F048]
09 90,1 [5C2D6418] [0B2591F2]
10 100,0 [019CBB0E] [CB116C2D]

* Udo Dirkschneider - Vocals
* Wolf Hoffmann - Guitars
* Jörg Fischer - Guitars
* Peter Baltes - Bass
* Stefan Kaufman - Drums

Produced and arranged for Breeze Music GmbH
Recorded and mixed October-December 1984 at Dierks Studios, Cologne
DOWNLOAD LINKS:
Buy Premium To Support Me & Get Resumable Support & Max Speed


Links are Interchangeable - No Password - Single Extraction
Direct Download


Tags: Accept

Accept - Metal Heart (1985) (1989, RCA, ND 74207) Fast Download via Rapidshare Hotfile Fileserve Filesonic Megaupload, Accept - Metal Heart (1985) (1989, RCA, ND 74207) Torrents and Emule Download or anything related.
Dear visitor, you went to website as unregistered user.
We encourage you to Register or Login to website under your name.
Information
Members of Guest cannot leave comments.